• 0
  • 0
  • 425
  • done
Sponsored Downloadondemand_video
55%

Marvel's Cloak & Dagger: Lotus Eaters(2018)

  • 1 7
  • Action & Adventure Drama Sci-Fi & Fantasy
  • A mysterious man may be the key for Tandy to finally clear her father’s name. Unfortunately, getting the answers she needs will be difficult as the man has been in a catatonic state for almost a decade, but it might not be so impossible for two people with extraordinary powers. With Tyrone alongside to help, the two test their combined powers for the first time.

    expand_more
    English

    Description

    image

    imageimageimageimage

    Media Information

    Unique ID : 226203718707172231373231465691800793068 (0xAA2D4064DBF37DE2B669120B2C8DEFEC)

    Complete name : Marvel's Cloak and Dagger S01E07 Lotus Eaters 1080p WEBRip x265 AAC 5.1 D0ct0rLew[UTR].mkv

    Format : Matroska

    Format version : Version 4 / Version 2

    File size : 1.26 GiB

    Duration : 42 min 17 s

    Overall bit rate : 4 250 kb/s

    Encoded date : UTC 2018-07-14 13:07:35

    Writing application : mkvmerge v15.0.0 ('Duel with the Devil') 64-bit

    Writing library : libebml v1.3.5 + libmatroska v1.4.5

    Video

    ID : 3

    Format : HEVC

    Format/Info : High Efficiency Video Coding

    Format profile : Main [email protected]@Main

    Codec ID : V_MPEGH/ISO/HEVC

    Duration : 42 min 17 s

    Bit rate : 3 827 kb/s

    Width : 1 920 pixels

    Height : 1 080 pixels

    Display aspect ratio : 16:9

    Frame rate mode : Constant

    Frame rate : 23.976 (24000/1001) FPS

    Color space : YUV

    Chroma subsampling : 4:2:0

    Bit depth : 10 bits

    Bits/(Pixel*Frame) : 0.077

    Stream size : 1.13 GiB (90%)

    Writing library : x265 2.7+25-e1ed4d609b52:[Windows][MSVC 1914][64 bit] 10bit

    Encoding settings : cpuid=1050111 / frame-threads=3 / numa-pools=8 / wpp / no-pmode / no-pme / no-psnr / no-ssim / log-level=2 / input-csp=1 / input-res=1920x1080 / interlace=0 / total-frames=60839 / level-idc=0 / high-tier=1 / uhd-bd=0 / ref=4 / no-allow-non-conformance / no-repeat-headers / annexb / no-aud / no-hrd / info / hash=0 / no-temporal-layers / open-gop / min-keyint=23 / keyint=250 / gop-lookahead=0 / bframes=8 / b-adapt=2 / b-pyramid / bframe-bias=0 / rc-lookahead=90 / lookahead-slices=4 / scenecut=40 / radl=0 / no-intra-refresh / ctu=64 / min-cu-size=8 / no-rect / no-amp / max-tu-size=32 / tu-inter-depth=1 / tu-intra-depth=1 / limit-tu=0 / rdoq-level=2 / dynamic-rd=0.00 / no-ssim-rd / signhide / no-tskip / nr-intra=0 / nr-inter=0 / no-constrained-intra / no-strong-intra-smoothing / max-merge=3 / limit-refs=3 / limit-modes / me=3 / subme=3 / merange=92 / temporal-mvp / weightp / no-weightb / no-analyze-src-pics / deblock=3:3 / sao / no-sao-non-deblock / rd=4 / no-early-skip / rskip / no-fast-intra / no-tskip-fast / no-cu-lossless / no-b-intra / no-splitrd-skip / rdpenalty=0 / psy-rd=1.00 / psy-rdoq=1.00 / no-rd-refine / no-lossless / cbqpoffs=-1 / crqpoffs=-1 / rc=crf / crf=18.5 / qcomp=0.50 / qpstep=4 / stats-write=0 / stats-read=0 / ipratio=1.40 / pbratio=1.30 / aq-mode=3 / aq-strength=1.00 / cutree / zone-count=0 / no-strict-cbr / qg-size=32 / no-rc-grain / qpmax=69 / qpmin=0 / no-const-vbv / sar=0 / overscan=0 / videoformat=5 / range=0 / colorprim=2 / transfer=2 / colormatrix=2 / chromaloc=0 / display-window=0 / max-cll=0,0 / min-luma=0 / max-luma=1023 / log2-max-poc-lsb=8 / vui-timing-info / vui-hrd-info / slices=1 / no-opt-qp-pps / no-opt-ref-list-length-pps / no-multi-pass-opt-rps / scenecut-bias=0.05 / no-opt-cu-delta-qp / no-aq-motion / no-hdr / no-hdr-opt / no-dhdr10-opt / no-idr-recovery-sei / analysis-reuse-level=5 / scale-factor=0 / refine-intra=0 / refine-inter=0 / refine-mv=0 / no-limit-sao / ctu-info=0 / no-lowpass-dct / refine-mv-type=0 / copy-pic=1 / max-ausize-factor=1.0 / no-dynamic-refine / no-single-sei

    Default : Yes

    Forced : No

    Audio

    ID : 2

    Format : AAC

    Format/Info : Advanced Audio Codec

    Format profile : LC

    Codec ID : A_AAC-2

    Duration : 42 min 17 s

    Bit rate : 420 kb/s

    Channel(s) : 6 channels

    Channel positions : Front: L C R, Side: L R, LFE

    Sampling rate : 48.0 kHz

    Frame rate : 46.875 FPS (1024 SPF)

    Compression mode : Lossy

    Delay relative to video : 9 ms

    Stream size : 127 MiB (10%)

    Language : English

    Default : Yes

    Forced : No

    Text

    ID : 1

    Format : UTF-8

    Codec ID : S_TEXT/UTF8

    Codec ID/Info : UTF-8 Plain Text

    Duration : 41 min 51 s

    Bit rate : 78 b/s

    Count of elements : 835

    Stream size : 24.1 KiB (0%)

    Language : English

    Default : Yes

    Forced : No

    We have no issue with individuals posting or re-uploading our torrents on a platform we aren't on. However, if this is something you'd like to do, please do so in a 'as-is' format. We ask that you do not create a new torrent, include all descriptions you see above including the UTR logo, tags, notes and screenshots. If you'd like to become a permanent poster on a website we don't post to, feel free to get in contact with a UniTeam member.


    More at ibit.to
    And ibit.uno
    And ibit.ws

    Reviews

    Comments

    Files

    Marvel's Cloak and Dagger S01E07 Lotus Eaters 1080p WEBRip x265 AAC 5.1 D0ct0rLew[UTR].mkv 1.3 GB
    Marvel's Cloak and Dagger S01E07 Lotus Eaters 1080p WEBRip x265 AAC 5.1 D0ct0rLew[UTR].mkv 1.3 GB

    Stream

    Downloading Seeding Marvel's Cloak and Dagger S01E07 Lotus Eaters 1080p WEBRip x265 AAC 5.1 D0ct0rLew[UTR].mkv from to 0 peers.
    of
    0 b/s / ↗0 b/s