• 0
  • 0
  • 20
  • done
Anonymous Downloadondemand_video
  • Marfa.Girl.2.2018.720p.WEB-DL.H264.AC3
  • 1.5 GB
  • LifeLongg
  • Marfa Girl 2018 720p H264
  • English
  • DVD
Warning! Use a VPN When Downloading Torrents!
Your IP Address is ,
Your Internet Provider can see when you download torrents! Hide your IP ADDRESS with a VPN
We strongly recommend hide.me VPN to hide your torrenting. It's FREE!
DOWNLOAD VPN
60%

Marfa Girl 2 (2018)

  • Drama
  • A family living in Marfa, Texas attempts to pull themselves back together after a horrific tragedy. This provocative sequel to Larry Clark's film Marfa Girl, shows us a group of people ready to escape their current realities - no matter the cost. Gritty, unrelenting and powerful, auteur Clark once again delivers a bleak landscape of sex, drugs and boredom amongst the residents of a dead-end Texas Border town.

    expand_more
    English

    Description

    Quote:

    __

    *****************************Thumbnail:*******************

    image

    ***************************Screenshots:*****************

    Screenshot 1

    Screenshot 2

    Screenshot 3

    Screenshot 4

    Screenshot 5

    Screenshot 6

    Screenshot 7

    Screenshot 8

    Screenshot 9

    Screenshot 0


    18+.Marfa.Girl.2.2018.720p.WEB-DL.H264.AC3.mp4

    Format : MPEG-4

    Format profile : Base Media

    Codec ID : isom (isom/iso2/avc1/mp41)

    File size : 1.49 GiB

    Duration : 1 h 14 min

    Overall bit rate mode : Variable

    Overall bit rate : 2 872 kb/s

    Video

    ID : 1

    Format : AVC

    Format/Info : Advanced Video Codec

    Format profile : [email protected]
    Format settings : CABAC / 1 Ref Frames

    Format settings, CABAC : Yes

    Format settings, RefFrames : 1 frame

    Codec ID : avc1

    Codec ID/Info : Advanced Video Coding

    Duration : 1 h 14 min

    Bit rate mode : Variable

    Bit rate : 2 485 kb/s

    Maximum bit rate : 7 500 kb/s

    Width : 1 280 pixels

    Height : 540 pixels

    Display aspect ratio : 2.35:1

    Original display aspect ratio : 2.35:1

    Frame rate mode : Constant

    Frame rate : 23.976 (23976/1000) FPS

    Color space : YUV

    Chroma subsampling : 4:2:0

    Bit depth : 8 bits

    Scan type : Progressive

    Bits/(Pixel*Frame) : 0.150

    Stream size : 1.29 GiB (86%)

    Language : English

    Codec configuration box : avcC

    Audio

    ID : 2

    Format : AC-3

    Format/Info : Audio Coding 3

    Commercial name : Dolby Digital

    Codec ID : ac-3

    Duration : 1 h 14 min

    Bit rate mode : Constant

    Bit rate : 384 kb/s

    Channel(s) : 6 channels

    Channel layout : L R C LFE Ls Rs

    Sampling rate : 48.0 kHz

    Frame rate : 31.250 FPS (1536 SPF)

    Bit depth : 16 bits

    Compression mode : Lossy

    Stream size : 204 MiB (13%)

    Language : English

    Service kind : Complete Main

    Default : Yes

    Alternate group : 1


    __


    More at ibit.to
    And ibit.uno
    And ibit.am
    And ibit.ws

    Reviews

    Comments

    Files

    18+.SAMPLE.ts 34 MB
    18+.18+.Marfa.Girl.2.2018.720p.WEB-DL.H264.AC3.mp4 1.5 GB

    Stream

    Downloading Seeding Marfa.Girl.2.2018.720p.WEB-DL.H264.AC3 from to 0 peers.
    of
    0 b/s / ↗0 b/s