• 9
  • 1
  • done
Anonymous Downloadondemand_video
  • Mard Ko Dard Nahi Hota 2019 Hindi 720p NF WEB-DL x264 ESub [MW]
  • 1.2 GB
  • moviefreak
  • Mard Dard Nahi Hota 2019 Hindi 720p WEB x264 ESub
  • Hindi
  • HD 720p
Warning! Use a VPN When Downloading Torrents!
Your IP Address is ,
Your Internet Provider can see when you download torrents! Hide your IP ADDRESS with a VPN
We strongly recommend Trust.Zone VPN to hide your torrenting. It's FREE!
DOWNLOAD VPN

Description

image

**

General

Format                                   : Matroska

Format version                           : Version 4

File size                                : 1.16 GiB

Duration                                 : 2 h 16 min

Overall bit rate                         : 1 216 kb/s

Video

ID                                       : 1

Format                                   : AVC

Format/Info                              : Advanced Video Codec

Format profile                           : [email protected]

Format settings                          : CABAC / 4 Ref Frames

Format settings, CABAC                   : Yes

Format settings, Reference frames        : 4 frames

Codec ID                                 : V_MPEG4/ISO/AVC

Duration                                 : 2 h 16 min

Bit rate                                 : 1 100 kb/s

Width                                    : 1 280 pixels

Height                                   : 676 pixels

Display aspect ratio                     : 1.893

Frame rate mode                          : Constant

Frame rate                               : 24.000 FPS

Color space                              : YUV

Chroma subsampling                       : 4:2:0

Bit depth                                : 8 bits

Scan type                                : Progressive

Bits/(Pixel*Frame)                       : 0.053

Stream size                              : 1.03 GiB (89%)

Writing library                          : x264 core 157 r2935 545de2f

Audio

ID                                       : 2

Format                                   : AAC LC

Codec ID                                 : A_AAC-2

Duration                                 : 2 h 16 min

Bit rate                                 : 129 kb/s

Channel(s)                               : 2 channels

Channel layout                           : L R

Sampling rate                            : 48.0 kHz

Frame rate                               : 46.875 FPS (1024 SPF)

Compression mode                         : Lossy

Stream size                              : 125 MiB (11%)

Language                                 : Hindi

Default                                  : Yes

Forced                                   : No

Text

ID                                       : 3

Format                                   : UTF-8

Codec ID                                 : S_TEXT/UTF8

Codec ID/Info                            : UTF-8 Plain Text

Duration                                 : 2 h 15 min

Bit rate                                 : 55 b/s

Count of elements                        : 1840

Stream size                              : 55.7 KiB (0%)

Default                                  : Yes

Forced                                   : No
**

Click To View Image

https://pichub.site/image/yGMhd

https://pichub.site/image/yGJfv

https://pichub.site/image/yGYr9

https://pichub.site/image/yGaWu

https://pichub.site/image/yGOVR

https://pichub.site/image/yGRNs


More at ibit.to
And ibit.uno
And ibit.ws

Comments

Files

Mard Ko Dard Nahi Hota 2019 Hindi 720p NF WEB-DL x264 ESub [MW].mkv 1.2 GB

Stream

Downloading Seeding Mard Ko Dard Nahi Hota 2019 Hindi 720p NF WEB-DL x264 ESub [MW] from to 0 peers.
of
0 b/s / ↗0 b/s