• 0
  • 0
Anonymous Downloadondemand_video
  • Mard Ko Dard Nahi Hota 2019 Hindi 1080p NF WEB-DL DD 5.1 x264 ESub [MW]
  • 2.1 GB
  • moviefreak
  • Mard Dard Nahi Hota 2019 Hindi 1080p WEB x264 ESub
  • Hindi
  • HD 1080p
Warning! Use a VPN When Downloading Torrents!
Your IP Address is ,
Your Internet Provider can see when you download torrents! Hide your IP ADDRESS with a VPN
We strongly recommend Trust.Zone VPN to hide your torrenting. It's FREE!
DOWNLOAD VPN

Description

image

**

General

Format                                   : Matroska

Format version                           : Version 4

File size                                : 2.06 GiB

Duration                                 : 2 h 16 min

Overall bit rate                         : 2 157 kb/s

Video

ID                                       : 1

Format                                   : AVC

Format/Info                              : Advanced Video Codec

Format profile                           : [email protected]

Format settings                          : CABAC / 4 Ref Frames

Format settings, CABAC                   : Yes

Format settings, Reference frames        : 4 frames

Codec ID                                 : V_MPEG4/ISO/AVC

Duration                                 : 2 h 16 min

Bit rate                                 : 1 800 kb/s

Width                                    : 1 920 pixels

Height                                   : 1 012 pixels

Display aspect ratio                     : 1.897

Frame rate mode                          : Constant

Frame rate                               : 24.000 FPS

Color space                              : YUV

Chroma subsampling                       : 4:2:0

Bit depth                                : 8 bits

Scan type                                : Progressive

Bits/(Pixel*Frame)                       : 0.039

Stream size                              : 1.69 GiB (82%)

Writing library                          : x264 core 157 r2935 545de2f

Audio

ID                                       : 2

Format                                   : AC-3

Format/Info                              : Audio Coding 3

Commercial name                          : Dolby Digital

Codec ID                                 : A_AC3

Duration                                 : 2 h 16 min

Bit rate mode                            : Constant

Bit rate                                 : 384 kb/s

Channel(s)                               : 6 channels

Channel layout                           : L R C LFE Ls Rs

Sampling rate                            : 48.0 kHz

Frame rate                               : 31.250 FPS (1536 SPF)

Bit depth                                : 16 bits

Compression mode                         : Lossy

Stream size                              : 375 MiB (18%)

Language                                 : Hindi

Service kind                             : Complete Main

Default                                  : Yes

Forced                                   : No

Text

ID                                       : 3

Format                                   : UTF-8

Codec ID                                 : S_TEXT/UTF8

Codec ID/Info                            : UTF-8 Plain Text

Duration                                 : 2 h 15 min

Bit rate                                 : 55 b/s

Count of elements                        : 1840

Stream size                              : 55.7 KiB (0%)

Default                                  : Yes

Forced                                   : No
**

Click To View Image

https://pichub.site/image/yur4p

https://pichub.site/image/yu064

https://pichub.site/image/yuoCy

https://pichub.site/image/yupLb

https://pichub.site/image/yu2Q0

https://pichub.site/image/yul7V


More at ibit.to
And ibit.uno
And ibit.ws

Comments

Files

Mard Ko Dard Nahi Hota 2019 Hindi 1080p NF WEB-DL DD 5.1 x264 ESub [MW].mkv 2.1 GB

Stream

Downloading Seeding Mard Ko Dard Nahi Hota 2019 Hindi 1080p NF WEB-DL DD 5.1 x264 ESub [MW] from to 0 peers.
of
0 b/s / ↗0 b/s