• 26
  • 8
  • 152
  • done
Sponsored Downloadondemand_video
69%

Manikarnika: The Queen of Jhansi (2019)

  • History Drama Action
  • Story of Rani Lakshmibai, one of the leading figures of the Indian Rebellion of 1857 and her resistance to the British Rule.

    expand_more
    Hindi
  • $17,500,000
  • Description

    Manikarnika The Queen of Jhansi 2019 Hindi Movies PDVDRip Clean Audio New Source with Sample ☻rDX☻

    ===============================================================================================

    SCREEN SHOTS:

    image

    or

    https://iphonehosting.eu/2018/12/discount/1.html

    File size : 701 MiB

    Duration : 2 h 15 min

    Overall bit rate mode : Constant

    Overall bit rate : 724 kb/s

    Movie name : Manikarnika The Queen of Jhansi 2019 Hindi Movies PDVDRip Clean Audio New Source ☻rDX☻

    Video

    ID : 2

    Format : AVC

    Format/Info : Advanced Video Codec

    Format profile : [email protected]
    Format settings, CABAC : Yes

    Format settings, ReFrames : 2 frames

    Format settings, GOP : M=1, N=12

    Codec ID : V_MPEG4/ISO/AVC

    Duration : 2 h 15 min

    Bit rate mode : Constant

    Bit rate : 661 kb/s

    Width : 700 pixels

    Height : 298 pixels

    Display aspect ratio : 2.35:1

    Frame rate mode : Constant

    Frame rate : 25.000 FPS

    Color space : YUV

    Chroma subsampling : 4:2:0

    Bit depth : 8 bits

    Scan type : Progressive

    Bits/(Pixel*Frame) : 0.127

    Stream size : 625 MiB (89%)

    Title : ☻rDX☻

    Language : English

    Default : Yes

    Forced : No

    Audio

    ID : 1

    Format : AC-3

    Format/Info : Audio Coding 3

    Mode extension : CM (complete main)

    Format settings, Endianness : Big

    Codec ID : A_AC3

    Duration : 2 h 15 min

    Bit rate mode : Constant

    Bit rate : 64.0 kb/s

    Channel(s) : 2 channels

    Channel positions : Front: L R

    Sampling rate : 44.1 kHz

    Frame rate : 28.711 FPS (1536 spf)

    Bit depth : 16 bits

    Compression mode : Lossy

    Stream size : 62.0 MiB (9%)

    Title : ☻rDX☻

    Default : Yes

    Forced : No

    https://www.imdb.com/title/tt6903440

    image


    More at ibit.to
    And ibit.uno
    And ibit.ws

    Reviews

    Comments

    Files

    Sample ~ Manikarnika The Queen of Jhansi 2019 Hindi Movies PDVDRip Clean Audio New Source ☻rDX☻.mkv 5.2 MB
    Manikarnika The Queen of Jhansi 2019 Hindi Movies PDVDRip Clean Audio New Source ☻rDX☻.mkv 701 MB

    Stream

    Downloading Seeding Manikarnika The Queen of Jhansi 2019 Hindi Movies PDVDRip Clean Audio New Source with Sample ☻rDX☻ from to 0 peers.
    of
    0 b/s / ↗0 b/s