• 1
  • 0
  • 1
Sponsored Downloadondemand_video
  • Man.Up.2015.720p.BluRay.H264.AAC-RARBG
  • 1.1 GB
  • 2015 720p BluRay H264 RARBG Man AAC
  • Movies
66%

Man Up (2015)

  • Romance Comedy
  • A 34 year old single woman, Nancy, hung-over again, exhausted by the endless fruitless set ups by her friends, traveling across London to toast another 10 years of her parent's successful happy magical marriage runs in with a 40 year old divorcee, Jack, who mistakes her for his 24 year old blind date. Nancy, deciding to go with it, happens to hop on the most chaotic yet hilarious journey of her life which neither of them will ever forget.

    expand_more
    English

    Description

    A 34 year old single woman| Nancy| hung-over again| exhausted by the endless fruitless set ups by her friends| traveling up to London to toast another 10 years ofher parent's successful happy magical marriage runs in with a 40 year old divorcee| Jack| who mistakes her for his 24 year old blind date. Nancy| deciding to go withit| happens to hop on the most chaotic yet hilarious journey of her life which neither of them will ever forget. There is drinking| truths| an old stalker class matewith a long standing crush| lost divorce papers| lost hopes| competitive indoor sports and yeah Jack finding out the truth that Nancy isn't his blind date. 'Man Up'a romantic comedy about taking chances| finding about being yourself| making decisions and rolling with the consequences.

    http://imdb.com/title/tt3064298/

    http://www.imdb.com/title/tt3064298/

    image

    image

    image

    image

    image

    MediaInfo:

    Video

    ID                                       : 1

    Format                                   : AVC

    Format/Info                              : Advanced Video Codec

    Format profile                           : High@L4.1

    Format settings, CABAC                   : Yes

    Format settings, ReFrames                : 4 frames

    Codec ID                                 : avc1

    Codec ID/Info                            : Advanced Video Coding

    Duration                                 : 1h 27mn

    Bit rate                                 : 1 500 Kbps

    Width                                    : 1 280 pixels

    Height                                   : 536 pixels

    Display aspect ratio                     : 2.40:1

    Frame rate mode                          : Constant

    Frame rate                               : 24.000 fps

    Color space                              : YUV

    Chroma subsampling                       : 4:2:0

    Bit depth                                : 8 bits

    Scan type                                : Progressive

    Bits/(Pixel*Frame)                       : 0.091

    Stream size                              : 943 MiB (87%)

    Writing library                          : x264 core 148 r2597M e86f3a1

    Encoding settings                        : cabac=1 / ref=4 / deblock=1:-1:-1 / analyse=0x3:0x113 / me=umh / subme=9 / psy=1 / psyrd=1.00:0.15 / mixedref=1 / merange=24 / chromame=1 / trellis=2 / 8x8dct=1 / cqm=0 / deadzone=21,11 / fastpskip=1 / chromaqpoffset=-3 / threads=32 / lookaheadthreads=4 / slicedthreads=0 / nr=0 / decimate=1 / interlaced=0 / bluraycompat=0 / constrainedintra=0 / bframes=3 / bpyramid=2 / badapt=1 / bbias=0 / direct=1 / weightb=1 / opengop=0 / weightp=2 / keyint=250 / keyintmin=25 / scenecut=40 / intrarefresh=0 / rclookahead=50 / rc=2pass / mbtree=1 / bitrate=1500 / ratetol=1.0 / qcomp=0.60 / qpmin=0 / qpmax=69 / qpstep=4 / cplxblur=20.0 / qblur=0.5 / vbvmaxrate=31250 / vbvbufsize=31250 / nalhrd=none / filler=0 / ipratio=1.40 / aq=3:1.00

    Encoded date                             : UTC 1904-01-01 00:00:00

    Tagged date                              : UTC 1904-01-01 00:00:00

    Audio

    ID                                       : 2

    Format                                   : AAC

    Format/Info                              : Advanced Audio Codec

    Format profile                           : LC

    Codec ID                                 : 40

    Duration                                 : 1h 27mn

    Bit rate mode                            : Constant

    Bit rate                                 : 224 Kbps

    Channel(s)                               : 2 channels

    Channel(s)_Original                      : 6 channels

    Channel positions                        : Front: L C R, Side: L R, LFE

    Sampling rate                            : 48.0 KHz

    Compression mode                         : Lossy

    Stream size                              : 141 MiB (13%)

    Language                                 : English

    Encoded date                             : UTC 1904-01-01 00:00:00

    Tagged date                              : UTC 1904-01-01 00:00:00

    Menu #1

    ID                                       : 3

    Codec ID                                 : text

    Duration                                 : 1h 27mn

    Language                                 : English

    Encoded date                             : UTC 1904-01-01 00:00:00

    Tagged date                              : UTC 1904-01-01 00:00:00

    Bit rate mode                            : CBR

    00:00:00.000                             : 00:00:00.000

    00:06:28.501                             : 00:06:28.458

    00:13:18.085                             : 00:13:18.042

    00:22:19.335                             : 00:22:19.292

    00:27:40.918                             : 00:27:40.875

    00:34:05.376                             : 00:34:05.333

    00:41:57.585                             : 00:41:57.542

    00:48:13.085                             : 00:48:13.042

    00:55:51.043                             : 00:55:51.000

    01:04:15.335                             : 01:04:15.292

    01:10:15.710                             : 01:10:15.667

    01:18:08.835                             : 01:18:08.792

    Menu #2

    00:00:00.043                             : 00:00:00.000

    00:06:28.501                             : 00:06:28.458

    00:13:18.085                             : 00:13:18.042

    00:22:19.335                             : 00:22:19.292

    00:27:40.918                             : 00:27:40.875

    00:34:05.376                             : 00:34:05.333

    00:41:57.585                             : 00:41:57.542

    00:48:13.085                             : 00:48:13.042

    00:55:51.043                             : 00:55:51.000

    01:04:15.335                             : 01:04:15.292

    01:10:15.710                             : 01:10:15.667

    01:18:08.835                             : 01:18:08.792


    More at ibit.to
    And ibit.uno
    And ibit.ws

    Reviews

    > Sometimes the right thing comes from the wrong. Another excellent Simon Pegg movie. This is his fourth movie I'm seeing inside a month and I enjoyed them all, especially 'Hector and Search for Happiness' was my favourite. This was a romantic-comedy that takes place in just one evening. A story about blind dating, boy meets girl, they spend a quality time by sharing the details and later turn against each other. So a recycled old theme that was very well crafted. If you see the poster what does the tagline says, well, that's what I was looking for. I had 'Date Night' in my mind, and thought it might be an altered British version. Other than that I was truly not expecting anything special, but a normal comedy, maybe sloppy. And it does only until a certain stage of the story, but 30 minutes later it overturns. So the best narration briskly took a slide towards joyous ride in the remaining 1 hour. I think, for right now Simon Pegg is my favourite British actor and you know the reason that I stated in the first paragraph. Lake Bell, who donned in a director's hat in her recent feature was so good on a 34 year-old role she played in this film. Together they were so perfect, one of the best on-screen couple with a wonderful chemistry. It was a story of two middle aged odd guys whose lives were shattered for some reasons. They meet accidentally and bond well. Once the truth got out, they repel away, but they both have something in common and that puts them on a test once they decide to correct the mistakes they have made. > "After this shot I will stronger, > wiser and finally moving on." At some stage in the life every person will going to be in their 30s and 40s (and some were had been there) like the couple from this film. The life won't be the same for everybody like that shown here, but can be understood, because that's the experience that define it. Despite romance crisis about the middle-aged guys, many dialogues were excellently written and funny as well. A couple of lines really made me worry and I can't just ignore by saying it was just a flick. Kind of easy to begin a story, like we're standing in an open ground and decide to move any direction we want in our 360º angle. But development is the key factor in the movie making and this film outshines. The real challenge was how to end it and once again it was a beautiful conclusion, even though I knew it was so cliché for a romantic-comedy. Overally looked a fairy-tale like theme, which irresistible if you love touching romantic stories. Definitely a good movie from the director of 'The Inbetweeners' and I'm going to recommend it for those who also liked the similar movies below I mentioned. But remember it's only cinematically amusing than being realistic. 7½/10

    Comments

    Files

    Man.Up.2015.720p.BluRay.H264.AAC-RARBG.mp4 1.1 GB
    Man.Up.2015.720p.BluRay.H264.AAC-RARBG.nfo 5.5 kB
    RARBG.COM.mp4 993 kB
    RARBG.COM.txt 30 B
    Subs/Man.Up.2015.720p.BluRay.H264.AAC-RARBG.idx 69 kB
    Subs/Man.Up.2015.720p.BluRay.H264.AAC-RARBG.sub 12 MB

    Stream

    Downloading Seeding Man.Up.2015.720p.BluRay.H264.AAC-RARBG from to 0 peers.
    of
    0 b/s / ↗0 b/s