• 15
  • 3
  • 597
  • done
Sponsored Downloadondemand_video
  • Mamma Mia Here We Go Again 2018 720p HDCAM x264 [MW]
  • 1.2 GB
  • moviezworldz
  • Mamma 2018 720p HDCAM x264 Mia
  • English
  • h.264/x264
72%

Mamma Mia! Here We Go Again (2018)

  • Comedy Romance
  • Five years after meeting her three fathers, Sophie Sheridan prepares to open her mother’s hotel. In 1979, young Donna Sheridan meets the men who each could be Sophie’s biological father.

    expand_more
    English
  • $75,000,000
  • Description

    image
    **
    General

    Format : Matroska

    Format version : Version 4 / Version 2

    File size : 1.15 GiB

    Duration : 1 h 46 min

    Overall bit rate : 1 538 kb/s

    Video

    ID : 1

    Format : AVC

    Format/Info : Advanced Video Codec

    Format profile : [email protected]
    Format settings : CABAC / 4 Ref Frames

    Format settings, CABAC : Yes

    Format settings, RefFrames : 4 frames

    Codec ID : V_MPEG4/ISO/AVC

    Duration : 1 h 46 min

    Bit rate : 1 400 kb/s

    Width : 1 276 pixels

    Height : 536 pixels

    Display aspect ratio : 2.40:1

    Frame rate mode : Constant

    Frame rate : 29.970 (30000/1001) FPS

    Color space : YUV

    Chroma subsampling : 4:2:0

    Bit depth : 8 bits

    Scan type : Progressive

    Bits/(Pixel*Frame) : 0.068

    Stream size : 1.05 GiB (92%)

    Writing library : x264 core 155 r2901 7d0ff22

    Default : Yes

    Forced : No

    Audio

    ID : 2

    Format : AAC

    Format/Info : Advanced Audio Codec

    Format profile : LC

    Codec ID : A_AAC-2

    Duration : 1 h 46 min

    Bit rate : 128 kb/s

    Channel(s) : 2 channels

    Channel positions : Front: L R

    Sampling rate : 48.0 kHz

    Frame rate : 46.875 FPS (1024 SPF)

    Compression mode : Lossy

    Stream size : 97.8 MiB (8%)

    Default : Yes

    Forced : No

    **

    Click To Enlarge Image

    image
    image
    image
    image
    image
    image
    image


    More at ibit.to
    And ibit.uno
    And ibit.ws

    Reviews

    Comments

    11 months ago

    This is 1xbet copy. The same as the other ones. Not sure why they feel the need to ruin a movie by putting ads all the way thru. Put it at the beginning and/or the end so people can watch. The way they are doing it is just making people mad and not want to watch.

    11 months ago

    they are annoyed it, won't download their movies.

    Files

    Mamma Mia Here We Go Again 2018 720p HDCAM x264 [MW].mkv 1.1 GB

    Stream

    Downloading Seeding Mamma Mia Here We Go Again 2018 720p HDCAM x264 [MW] from to 0 peers.
    of
    0 b/s / ↗0 b/s