• 0
  • 0
  • done
Anonymous Downloadondemand_video
  • Luis and His Friends from Outer Space (2018).720p.mkv
  • 4.0 GB
  • holoff
  • Luis Friends Outer Space 2018 720p mkv
  • Мультфильмы
Warning! Use a VPN When Downloading Torrents!
Your IP Address is ,
Your Internet Provider can see when you download torrents! Hide your IP ADDRESS with a VPN
We strongly recommend Trust.Zone VPN to hide your torrenting. It's FREE!
DOWNLOAD VPN
62%

Luis and the Aliens (2018)

  • Animation Family Adventure Comedy Science Fiction
  • The story 11-year-old Luis who makes friends with three loveable little aliens, who crash their UFO into his house. In return for Luis' help in finding the home-shopping channel stuff they came for, they save Luis from boarding school - and an exciting adventure follows.

    expand_more
    German

    Description


    Пришельцы в доме

    Luis & the Aliens | Luis and His Friends from Outer Space

    «Выгони их, если сможешь»


    image


    Страна : Германия, Люксембург, Дания

    Жанр : мультфильм, фантастика, комедия, приключения

    Год выпуска : 2018

    Продолжительность : 01:25:15


    Перевод : Профессиональный (дублированный)

    iTunes

    Субтитры : Eng

    Оригинальная аудиодорожка : Ger


    Режиссёр : Кристоф Лауэнштайн / Christoph Lauenstein, Вольфганг Лауэнштайн / Wolfgang Lauenstein, Шон МакКормак / Sean McCormack

    В ролях : Каллум Малони, Дермот Магеннис, Йен Коппингер, Пол Тайлак, Люси Кэролан, Эйн Дэйли, Эйлин Митен, Саймон Тоул, Данна Дэвис, Сьюзи Пауэр


    Описание

    :

    У 12-летнего Луиса нет друзей, а у его отца постоянно не хватает на него времени. Тот страстно увлечен уфологией и даже не догадывается, что те, кого он так жаждет найти, находятся прямо у него перед носом. Луис становится единственным свидетелем аварийной посадки трех чудаковатых инопланетян рядом с их домом. Троица пришельцев быстро находит общий язык с мальчиком. Они ведут себя точь-в-точь как озорные подростки, и обладают к тому же совершенно удивительной способностью — перевоплощаться в любое живое существо. Луис еще никогда так не веселился, как рядом с ними. Но он быстро понимает, что если взрослые узнают о его тайне, ничем хорошим это не закончится. Поэтому он решает помочь им починить тарелку и улететь вместе с ними…


    image
    IMDb: 6.10 (1262)
    Sample
    image



    Качество : BDRip 720p |

    Luis and the Aliens 2018 1080p GER Blu-ray AVC DTS-HD MA 5.1-riemigis

    Формат : MKV


    Видео : AVC 4586 kb/s 1280 x 690 (1.855) 24.000 fps

    Аудио : AC-3 384 kb/s 6 channels, 48.0 kHz

    iTunes

    Аудио 2 : AC-3 640 kb/s 6 channels, 48.0 kHz

    Eng

    Аудио 3 : AC-3 640 kb/s 6 channels, 48.0 kHz

    Ger


    MediaInfo | Log

    Log

    x264 [info]: frame I:1239 Avg QP:14.33 size:148132
    x264 [info]: frame P:26921 Avg QP:15.51 size: 45745
    x264 [info]: frame B:94598 Avg QP:17.54 size: 16036
    x264 [info]: consecutive B-frames: 2.2% 2.3% 13.3% 18.7% 16.0% 31.4% 6.0% 4.9% 2.7% 0.8% 1.6%
    x264 [info]: mb I I16..4: 11.1% 67.4% 21.5%
    x264 [info]: mb P I16..4: 1.2% 12.7% 2.1% P16..4: 25.2% 28.3% 13.6% 3.0% 0.3% skip:13.7%
    x264 [info]: mb B I16..4: 0.2% 2.1% 0.2% B16..8: 26.2% 18.7% 4.5% direct: 4.6% skip:43.4% L0:44.3% L1:40.8% BI:14.9%
    x264 [info]: 8x8 transform intra:79.1% inter:49.9%
    x264 [info]: direct mvs spatial:99.9% temporal:0.1%
    x264 [info]: coded y,uvDC,uvAC intra: 90.7% 90.2% 79.5% inter: 22.4% 18.4% 6.4%
    x264 [info]: i16 v,h,dc,p: 20% 12% 17% 51%
    x264 [info]: i8 v,h,dc,ddl,ddr,vr,hd,vl,hu: 11% 12% 14% 8% 11% 10% 11% 10% 13%
    x264 [info]: i4 v,h,dc,ddl,ddr,vr,hd,vl,hu: 24% 11% 8% 7% 12% 11% 10% 8% 9%
    x264 [info]: i8c dc,h,v,p: 43% 24% 18% 15%
    x264 [info]: Weighted P-Frames: Y:1.3% UV:1.1%
    x264 [info]: ref P L0: 49.1% 9.1% 17.6% 6.1% 5.7% 3.9% 3.9% 2.1% 2.4% 0.1% 0.0%
    x264 [info]: ref B L0: 67.3% 13.2% 7.4% 4.1% 3.2% 2.7% 1.7% 0.5%
    x264 [info]: ref B L1: 92.9% 7.1%
    x264 [info]: kb/s:4585.88

    x264 [total]: encoded 122758 frames, 10.79 fps, 4585.89 kb/s, duration 3:09:40.99

    Format : Matroska
    Format version : Version 4
    File size : 3.72 GiB
    Duration : 1 h 25 min
    Overall bit rate : 6 252 kb/s
    Encoded date : UTC 2019-05-15 23:22:31
    Writing application : mkvmerge v8.2.0 ('World of Adventure') 64bit
    Writing library : libebml v1.3.1 + libmatroska v1.4.2

    Video
    ID : 1
    Format : AVC
    Format/Info : Advanced Video Codec
    Format profile : [email protected]
    Format settings : CABAC / 9 Ref Frames
    Format settings, CABAC : Yes
    Format settings, RefFrames : 9 frames
    Codec ID : VMPEG4/ISO/AVC
    Duration : 1 h 25 min
    Bit rate : 4 586 kb/s
    Width : 1 280 pixels
    Height : 690 pixels
    Display aspect ratio : 1.85:1
    Frame rate mode : Constant
    Frame rate : 24.000 FPS
    Color space : YUV
    Chroma subsampling : 4:2:0
    Bit depth : 8 bits
    Scan type : Progressive
    Bits/(Pixel*Frame) : 0.216
    Stream size : 2.73 GiB (73%)
    Title : Luis and His Friends from Outer Space (2018) [rutracker.org]
    Writing library : x264 core 152 r2851kMod ba24899
    Encoding settings : cabac=1 / ref=9 / deblock=1:-3:-2 / analyse=0x3:0x133 / me=umh / subme=11 / psy=1 / fade
    compensate=0.00 / psyrd=1.00:0.05 / mixedref=1 / merange=48 / chromame=1 / trellis=2 / 8x8dct=1 / cqm=0 / deadzone=21,11 / fastpskip=0 / chromaqpoffset=-3 / threads=12 / lookaheadthreads=3 / slicedthreads=0 / nr=0 / decimate=1 / interlaced=0 / bluraycompat=0 / constrainedintra=0 / bframes=10 / bpyramid=2 / badapt=2 / bbias=0 / direct=3 / weightb=1 / opengop=0 / weightp=2 / keyint=250 / keyintmin=23 / scenecut=40 / intrarefresh=0 / rclookahead=60 / rc=crf / mbtree=0 / crf=16.6000 / qcomp=0.60 / qpmin=0 / qpmax=69 / qpstep=4 / vbvmaxrate=50000 / vbvbufsize=62500 / crfmax=0.0 / nalhrd=none / filler=0 / ipratio=1.40 / pbratio=1.30 / aq=3:0.90
    Language : German
    Default : Yes
    Forced : No

    Audio #1
    ID : 2
    Format : AC-3
    Format/Info : Audio Coding 3
    Commercial name : Dolby Digital
    Codec ID : A_AC3
    Duration : 1 h 25 min
    Bit rate mode : Constant
    Bit rate : 384 kb/s
    Channel(s) : 6 channels
    Channel layout : L R C LFE Ls Rs
    Sampling rate : 48.0 kHz
    Frame rate : 31.250 FPS (1536 SPF)
    Bit depth : 16 bits
    Compression mode : Lossy
    Stream size : 234 MiB (6%)
    Title : DUB (iTunes)
    Language : Russian
    Service kind : Complete Main
    Default : Yes
    Forced : No

    Audio #2
    ID : 3
    Format : AC-3
    Format/Info : Audio Coding 3
    Commercial name : Dolby Digital
    Codec ID : A_AC3
    Duration : 1 h 25 min
    Bit rate mode : Constant
    Bit rate : 640 kb/s
    Channel(s) : 6 channels
    Channel layout : L R C LFE Ls Rs
    Sampling rate : 48.0 kHz
    Frame rate : 31.250 FPS (1536 SPF)
    Bit depth : 16 bits
    Compression mode : Lossy
    Stream size : 390 MiB (10%)
    Title : Eng
    Language : English
    Service kind : Complete Main
    Default : No
    Forced : No

    Audio #3
    ID : 4
    Format : AC-3
    Format/Info : Audio Coding 3
    Commercial name : Dolby Digital
    Codec ID : A_AC3
    Duration : 1 h 25 min
    Bit rate mode : Constant
    Bit rate : 640 kb/s
    Channel(s) : 6 channels
    Channel layout : L R C LFE Ls Rs
    Sampling rate : 48.0 kHz
    Frame rate : 31.250 FPS (1536 SPF)
    Bit depth : 16 bits
    Compression mode : Lossy
    Stream size : 390 MiB (10%)
    Title : Original
    Language : German
    Service kind : Complete Main
    Default : No
    Forced : No

    Text
    ID : 5
    Format : UTF-8
    Codec ID : S_TEXT/UTF8
    Codec ID/Info : UTF-8 Plain Text
    Duration : 1 h 23 min
    Bit rate : 61 b/s
    Count of elements : 1415
    Stream size : 37.4 KiB (0%)
    Title : Full
    Language : English
    Default : No
    Forced : No

    Menu
    00:00:00.000 : en:00:00:00.000
    00:11:02.542 : en:00:11:02.542
    00:19:54.667 : en:00:19:54.667
    00:29:11.792 : en:00:29:11.792
    00:39:30.333 : en:00:39:30.333
    00:47:49.083 : en:00:47:49.083
    00:55:58.417 : en:00:55:58.417
    01:05:02.000 : en:01:05:02.000
    01:16:40.625 : en:01:16:40.625[/pre]

    Скриншоты

    image

    image

    imageimageimage

    imageimageimage

    imageimage


    More at ibit.to
    And ibit.uno
    And ibit.ws

    Reviews

    Comments

    Files

    Luis and His Friends from Outer Space (2018).720p.mkv 4.0 GB

    Stream

    Downloading Seeding Luis and His Friends from Outer Space (2018).720p.mkv from to 0 peers.
    of
    0 b/s / ↗0 b/s