• 1
  • 0
  • 2
Sponsored Downloadondemand_video
  • Linsanity 2013 HDRip XviD AC3-RARBG
  • 1.3 GB
  • Linsanity 2013 HDRip XviD RARBG
  • English,Mandarin
  • XVID
69%

Linsanity (2013)

  • Documentary
  • The life story of basketball sensation, Jeremy Lin.

    expand_more
    English

    Description

    In February 2012| an entire nation of basketball fans unexpectedly went 'Linsane.' Stuck in the mire of a disappointing season| the New York Knicks did what no otherNBA team had thought about doing. They gave backup point guard Jeremy Lin an opportunity to prove himself. He took full advantage| scoring more points in his firstfive NBA starts than any other player in the modern era| and created a legitimate public frenzy in the process. Prior to this now-legendary run| Lin had facedadversity in his career at every turn. He wasn't offered a scholarship by any major university| nor was he drafted by any NBA team after a standout collegiate careerat Harvard.

    Linsanity.2013.HDRip.XviD.AC3-RARBG

    https://www.imdb.com/title/tt2359427/

                                                                       

    7MM"""Mq.        db      7MM"""Mq.  `7MM"""Yp,   .g8"""bgd                                      

     MM   MM.      ;MM:       MM  MM.   MM    Yb .dP'     `M                                      

     MM   ,M9      ,V^MM.      MM   ,M9    MM    dP dM'           ,p6"bo   ,pW"Wq.7MMpMMMb.pMMMb.  

     MMmmdM9      ,M  MM      MMmmdM9     MM"""bg. MM             6M'  OO  6W'  Wb MM    MM    MM  

     MM  YM.      AbmmmqMA     MM  YM.     MM    Y MM.    7MMF'  8M       8M     M8 MM    MM    MM  

     MM   Mb.   A'     VML    MM  Mb.   MM    ,9 `Mb.     MM ,, YM.    , YA.   ,A9 MM    MM    MM  

    .JMML. .JMM..AMA.   .AMMA..JMML. .JMM..JMMmmmd9    "bmmmdPY db  YMbmd'  Ybmd9'.JMML  JMML  JMML.

    image

    image

    image

    Info:

    Format                                   : AVI

    Format/Info                              : Audio Video Interleave

    Format profile                           : OpenDML

    File size                                : 1.33 GiB

    Duration                                 : 1h 29mn

    Overall bit rate                         : 2 142 Kbps

    Movie name                               : www.RARBG.com

    Writing application                      : Lavf55.19.100

    Video

    ID                                       : 0

    Format                                   : MPEG-4 Visual

    Format profile                           : Advanced Simple@L5

    Format settings, BVOP                    : 5

    Format settings, QPel                    : No

    Format settings, GMC                     : No warppoints

    Format settings, Matrix                  : Default (H.263)

    Codec ID                                 : XVID

    Codec ID/Hint                            : XviD

    Duration                                 : 1h 29mn

    Bit rate                                 : 1 746 Kbps

    Width                                    : 720 pixels

    Height                                   : 298 pixels

    Display aspect ratio                     : 2.40:1

    Original display aspect ratio            : 2.40:1

    Frame rate                               : 23.976 fps

    Color space                              : YUV

    Chroma subsampling                       : 4:2:0

    Bit depth                                : 8 bits

    Scan type                                : Progressive

    Compression mode                         : Lossy

    Bits/(Pixel*Frame)                       : 0.339

    Stream size                              : 1.09 GiB (81%)

    Writing library                          : XviD 64

    Audio

    ID                                       : 1

    Format                                   : AC-3

    Format/Info                              : Audio Coding 3

    Codec ID                                 : 00001000-0000-0020-8000-00AA00389B71

    Duration                                 : 1h 29mn

    Bit rate                                 : 384 Kbps

    Channel(s)                               : 6 channels

    Channel positions                        : Front: L C R, Side: L R, LFE

    Sampling rate                            : 48.0 KHz

    Bit depth                                : 16 bits

    Compression mode                         : Lossy

    Stream size                              : 245 MiB (18%)

    Interleave, duration                     : 32 ms (0.77 video frame)

    Interleave, preload duration             : 32 ms

    Screens:

    image

    image

    image

    image

    image

    image

    Notes:

    Greetz to everyone image


    More at ibit.to
    And ibit.uno
    And ibit.ws

    Reviews

    Comments

    5 years ago

    Lousy audio codec isnt recognized by ConvertX even after installing K-Lite   Quit encoding your own plz.

    Files

    Linsanity.2013.HDRip.XviD.AC3-RARBG.avi 1.3 GB
    Linsanity.2013.HDRip.XviD.AC3-RARBG.nfo 3.6 kB
    RARBG.com.txt 30 B

    Stream

    Downloading Seeding Linsanity 2013 HDRip XviD AC3-RARBG from to 0 peers.
    of
    0 b/s / ↗0 b/s