• 0
  • 0
  • done
Downloadondemand_video
  • Libeled.Lady.1936.dvdrip_[1.46]_[teko].avi
  • 1.5 GB
  • tеko
  • Libeled Lady 1936 dvdrip teko avi
  • English
  • HD
72%

Libeled Lady (1936)

  • Comedy Romance
  • When a major newspaper accuses wealthy socialite Connie Allenbury of being a home-wrecker, and she files a multi-million-dollar libel lawsuit, the publication's frazzled head editor, Warren Haggerty, must find a way to turn the tables on her. Soon Haggerty's harried fiancée, Gladys Benton, and his dashing friend Bill Chandler are in on a scheme that aims to discredit Connie, with amusing and unexpected results.

    expand_more
    English

    Description

    Оклеветанная / Libeled Lady

    image

    Страна : США

    Жанр : комедия, мелодрама

    Год выпуска : 1936

    Продолжительность : 01:38:22

    Перевод : Профессиональный (многоголосый закадровый)

    Субтитры : нет

    Оригинальная аудиодорожка : английский

    Режиссер : Джек Конуэй / Jack Conway

    В ролях : Джин Харлоу, Уильям Пауэлл, Мирна Лой, Спенсер Трэйси, Уолтер Коннолли, Чарли Грейпвин, Кора Уизерспун, Е.Е.Клайв, Банни Битти, Отто Ямаока

    Описание : Бил Чандлер один из самых мастеровитых рыболовов Америки, по технике ему нет равных, любая форель попадется к нему на удочку. Но Чандлер рассказывает нам не только рыболовную историю.
    Все начинается, когда светская дива предъявляет репортеру Трейси иск по делу о клевете. Трейси привлекает невесту Харлоу и неудачливого Пауела к встречному маневру, включающему в себя фальсифицированную свадьбу, подстроенное насилие, необычайно смешную сцену на рыбалке, драку, обманутые обещания и разбитые сердца, и, конечно же, настоящую любовь.

    Качество видео : DVDRip

    Формат видео : AVI

    Видео : 640x480 (1.33:1), 23.976 fps, XviD build 73 ~1724 kbps avg, 0.23 bit/pixel

    Аудио : 48 kHz, AC3 Dolby Digital, 2/0 (L,R) ch, ~192 kbps - многоголосый

    Аудио : 48 kHz, AC3 Dolby Digital, 1 ch, ~192.00 kbps avg - оригинал

    image

    Сравнение

    http://rutracker.org/forum/viewtopic.php?t=402464
    http://screenshotcomparison.com/comparison/199302/picture:1

    MediaInfo

    General
    Complete name : H:Libeled.Lady.1936.dvdrip[1.46][teko].avi
    Format : AVI
    Format/Info : Audio Video Interleave
    File size : 1.46 GiB
    Duration : 1h 38mn
    Overall bit rate : 2 123 Kbps
    Writing application : VirtualDubMod 1.5.10.3 | www.virtualdub-fr.org || (build 2550/release)
    Writing library : VirtualDubMod build 2550/release

    Video
    ID : 0
    Format : MPEG-4 Visual
    Format profile : Advanced [email protected]
    Format settings, BVOP : 2
    Format settings, QPel : No
    Format settings, GMC : No warppoints
    Format settings, Matrix : Custom
    Codec ID : XVID
    Codec ID/Hint : XviD
    Duration : 1h 38mn
    Bit rate : 1 725 Kbps
    Width : 640 pixels
    Height : 480 pixels
    Display aspect ratio : 4:3
    Frame rate : 23.976 (24000/1001) fps
    Color space : YUV
    Chroma subsampling : 4:2:0
    Bit depth : 8 bits
    Scan type : Progressive
    Compression mode : Lossy
    Bits/(Pixel*Frame) : 0.234
    Stream size : 1.19 GiB (81%)
    Writing library : XviD 73

    Audio #1
    ID : 1
    Format : AC-3
    Format/Info : Audio Coding 3
    Mode extension : CM (complete main)
    Format settings, Endianness : Big
    Codec ID : 2000
    Duration : 1h 38mn
    Bit rate mode : Constant
    Bit rate : 192 Kbps
    Channel(s) : 2 channels
    Channel positions : Front: L R
    Sampling rate : 48.0 KHz
    Frame rate : 31.250 fps (1536 spf)
    Compression mode : Lossy
    Stream size : 135 MiB (9%)
    Alignment : Split accross interleaves
    Interleave, duration : 42 ms (1.00 video frame)
    Interleave, preload duratio : 500 ms

    Audio #2
    ID : 2
    Format : AC-3
    Format/Info : Audio Coding 3
    Mode extension : CM (complete main)
    Format settings, Endianness : Big
    Codec ID : 2000
    Duration : 1h 38mn
    Bit rate mode : Constant
    Bit rate : 192 Kbps
    Channel(s) : 1 channel
    Channel positions : Front: C
    Sampling rate : 48.0 KHz
    Frame rate : 31.250 fps (1536 spf)
    Compression mode : Lossy
    Delay relative to video : 12s 0ms
    Stream size : 135 MiB (9%)
    Alignment : Split accross interleaves
    Interleave, duration : 42 ms (1.00 video frame)
    Interleave, preload duratio : 500 ms

    Скриншоты

    image image image image image image image image image image image image image image image

    Релиз группы

    :

    image




    More at ibit.to
    And ibit.uno
    And ibit.am
    And ibit.ws

    Reviews

    Comments

    Files

    Libeled.Lady.1936.dvdrip_[1.46]_[teko].avi 1.5 GB

    Stream

    Downloading Seeding Libeled.Lady.1936.dvdrip_[1.46]_[teko].avi from to 0 peers.
    of
    0 b/s / ↗0 b/s