• 1
  • 0
  • 63
Downloadondemand_video
  • Liar Season 1 RB58
  • 2.9 GB
  • RedBaron58
  • Liar Season RB58
  • English
  • SD
68%

Liar: Series 1(2017)

  • 1
  • Drama Crime Mystery
  • A teacher and a surgeon are rocked by scandalous accusations after they enjoy a seemingly innocent date.

    expand_more
    English
    • 1
    • 2
    • 3
    • 4
    • 5
    • 6

    Description

    Liar S01 x264 mp4

    https://www.imdb.com/title/tt6021284/

    Thank you for your kind comments and feedback on my other torrents, your feedback is welcome.

    About the Series:

    Laura is a smart and dedicated teacher, not long out of a relationship and unsure about getting
    back on the dating scene. Andrew is a renowned surgeon whose son is a pupil at Laura's school.
    An initial attraction leads to a date, but neither fully realizes the far-reaching consequences
    that their meeting will have on each other or their families.

    I hope you enjoy.

    image

    Technical: (All episodes are encoded to the same settings)

    General

    Complete name : D:Liar S01Liar S01E01 x264 RB58.mp4

    Format : MPEG-4

    Format profile : Base Media

    Codec ID : isom (isom/iso2/avc1/mp41)

    File size : 505 MiB

    Duration : 46 min 24 s

    Overall bit rate : 1 521 kb/s

    Writing application : Lavf54.63.104

    Video

    ID : 1

    Format : AVC

    Format/Info : Advanced Video Codec

    Format profile : [email protected]
    Format settings, CABAC : Yes

    Format settings, ReFrames : 4 frames

    Codec ID : avc1

    Codec ID/Info : Advanced Video Coding

    Duration : 46 min 24 s

    Bit rate : 1 400 kb/s

    Width : 832 pixels

    Height : 468 pixels

    Display aspect ratio : 16:9

    Frame rate mode : Constant

    Frame rate : 25.000 FPS

    Color space : YUV

    Chroma subsampling : 4:2:0

    Bit depth : 8 bits

    Scan type : Progressive

    Bits/(Pixel*Frame) : 0.144

    Stream size : 465 MiB (92%)

    Writing library : x264 core 123 r2189 35cf912

    Encoding settings : cabac=1 / ref=3 / deblock=1:0:0

    Audio

    ID : 2

    Format : AAC

    Format/Info : Advanced Audio Codec

    Format profile : LC

    Codec ID : 40

    Duration : 46 min 24 s

    Bit rate mode : Constant

    Bit rate : 113 kb/s

    Channel(s) : 2 channels

    Channel positions : Front: L R

    Sampling rate : 48.0 kHz

    Frame rate : 46.875 FPS (1024 spf)

    Compression mode : Lossy

    Stream size : 37.4 MiB (7%)


    More at ibit.to
    And ibit.uno
    And ibit.am
    And ibit.ws

    Reviews

    Comments

    Files

    Liar S01/Liar S01E06 x264 RB58.mp4 505 MB
    Liar S01/Liar S01E04 x264 RB58.mp4 498 MB
    Liar S01/Liar S01E01 x264 RB58.mp4 505 MB
    Liar S01/Liar S01E03 x264 RB58.mp4 497 MB
    Liar S01/Torrent Downloaded From Katcr.co - Kickasstorrents.txt -
    Liar S01/Liar S01E05 x264 RB58.mp4 498 MB
    Liar S01/Liar S01E02 x264 RB58.mp4 497 MB

    Stream

    Downloading Seeding Liar Season 1 RB58 from to 0 peers.
    of
    0 b/s / ↗0 b/s