• 0
  • 0
  • 562
Anonymous Downloadondemand_video
  • Legend (2015).H264.Italian.English.Ac3.5.1.sub.ita.iCV-MIRCrew
  • 2.0 GB
  • robbyrs
  • Legend 2015 H264 Italian English MIRCrew
  • English
  • h.264/x264
Warning! Use a VPN When Downloading Torrents!
Your IP Address is ,
Your Internet Provider can see when you download torrents! Hide your IP ADDRESS with a VPN
We strongly recommend hide.me VPN to hide your torrenting. It's FREE!
DOWNLOAD VPN
68%

Legend (2015)

  • Crime Thriller
  • Suave, charming and volatile, Reggie Kray and his unstable twin brother Ronnie start to leave their mark on the London underworld in the 1960s. Using violence to get what they want, the siblings orchestrate robberies and murders while running nightclubs and protection rackets. With police Detective Leonard "Nipper" Read hot on their heels, the brothers continue their rapid rise to power and achieve tabloid notoriety.

    expand_more
    English
  • $25,000,000
  • Description

    Legend (2015).H264.Italian.English.Ac3.5.1.sub.ita.iCV-MIRCrew

    **image
    **

    ** NO FOUND ONLY ORIGINAL RELEASE **

    **

    image

    My release is always in double track audio italian and Original audio

    for select it use VLC or dvd player home

    not use wmp

    Legend (2015)

    image

    image

    image

    DATA USCITA: 03 marzo 2016

    GENERE: Thriller, Drammatico

    ANNO: 2015

    REGIA: Brian Helgeland

    SCENEGGIATURA: Brian Helgeland

    FOTOGRAFIA: Dick Pope

    MONTAGGIO: Peter McNulty

    MUSICHE: Carter Burwell

    PRODUZIONE: Cross Creek Pictures, Working Title Films

    DISTRIBUZIONE: 01 Distribution

    PAESE: Gran Bretagna

    DURATA: 131 Min

    image

    Tom Hardy, Taron Egerton, Emily Browning, Colin Morgan, Christopher Eccleston, David Thewlis, Paul Anderson, Tara Fitzgerald, Chazz Palminteri

    image

    La vera storia dell'ascesa e della caduta dei famigerati gangster londinesi Reggie e Ronnie Kray. Insieme, i gemelli Kray conquistarono la città di Londra. Tuttavia il loro legame e il loro impero vennero minati da violente lotte di potere e da una donna, in un crescendo di follia. LEGEND è un classico noir che racconta la storia segreta degli anni '60 e gli eventi straordinari che hanno favorito l'egemonia criminale dei gemelli Kray.

    image

    The true story of London's most notorious gangsters, twins Reggie and Ronnie Kray. As the brothers rise through the criminal underworld, Ronnie advances the family business with violence and intimidation while Reggie struggles to go legitimate for local girl Frances Shea. In and out of prison, Ronnie's unpredictable tendencies and the slow disintegration of Reggie's marriage threaten to bring the brothers' empire tumbling to the ground.

    image

    image image image

    image

    [spoiler]

    General

    Unique ID : 39410117171727082314040890349932182338 (0x1DA61CCB4FAFCD7162FA6C518D5AFB42)

    Complete name : Legend (2015).ita.eng.sub.ita.eng.iCV-MIRCrew.mkv

    Format : Matroska

    Format version : Version 2

    File size : 2.01 GiB

    Duration : 2h 11mn

    Overall bit rate : 2 191 Kbps

    Movie name : VISIT www.icv-crew.org

    Encoded date : UTC 2016-07-16 12:02:36

    Writing application : Lavf54.63.100

    Writing library : Lavf54.63.100

    COPYRIGHT : robbyrs

    Video

    ID : 1

    Format : AVC

    Format/Info : Advanced Video Codec

    Format profile : [email protected]
    Format settings, CABAC : Yes

    Format settings, ReFrames : 2 frames

    Codec ID : V_MPEG4/ISO/AVC

    Duration : 2h 11mn

    Bit rate : 1 290 Kbps

    Width : 720 pixels

    Height : 304 pixels

    Display aspect ratio : 2.40:1

    Frame rate mode : Variable

    Frame rate : 24.000 fps

    Color space : YUV

    Chroma subsampling : 4:2:0

    Bit depth : 8 bits

    Scan type : Progressive

    Bits/(Pixel*Frame) : 0.246

    Stream size : 1.15 GiB (57%)

    Writing library : x264 core 130 r2273

    Encoding settings : cabac=1 / ref=2 / deblock=1:0:0 / analyse=0x1:0x131 / me=hex / subme=7 / psy=1 / psyrd=1.00:0.00 / mixedref=0 / merange=16 / chromame=1 / trellis=1 / 8x8dct=0 / cqm=0 / deadzone=21,11 / fastpskip=1 / chromaqpoffset=-2 / threads=12 / lookaheadthreads=2 / slicedthreads=0 / nr=0 / decimate=1 / interlaced=0 / bluraycompat=0 / constrainedintra=0 / bframes=3 / bpyramid=0 / badapt=1 / bbias=0 / direct=3 / weightb=1 / opengop=0 / weightp=2 / keyint=240 / keyintmin=24 / scenecut=40 / intrarefresh=0 / rclookahead=40 / rc=2pass / mbtree=1 / bitrate=1290 / ratetol=1.0 / qcomp=0.60 / qpmin=10 / qpmax=69 / qpstep=4 / cplxblur=20.0 / qblur=0.5 / vbvmaxrate=24000 / vbvbufsize=24000 / nalhrd=none / ipratio=1.40 / aq=1:1.00

    Language : English

    Default : Yes

    Forced : No

    DURATION : 02:11:26.125000000

    NUMBEROFFRAMES : 189267

    NUMBEROFBYTES : 6572270588

    STATISTICSWRITING_APP : mkvmerge v9.1.0 ('Little Earthquakes') 64bit

    STATISTICSWRITINGDATEUTC : 2016-07-16 12:02:36

    STATISTICSTAGS : BPS DURATION NUMBEROFFRAMES NUMBEROFBYTES

    Audio #1

    ID : 2

    Format : AC-3

    Format/Info : Audio Coding 3

    Mode extension : CM (complete main)

    Codec ID : A_AC3

    Duration : 2h 11mn

    Bit rate mode : Constant

    Bit rate : 448 Kbps

    Channel(s) : 6 channels

    Channel positions : Front: L C R, Side: L R, LFE

    Sampling rate : 48.0 KHz

    Bit depth : 16 bits

    Compression mode : Lossy

    Stream size : 421 MiB (20%)

    Language : Italian

    Default : Yes

    Forced : No

    DURATION : 02:11:26.176000000

    NUMBEROFFRAMES : 246443

    NUMBEROFBYTES : 630894080

    STATISTICSWRITING_APP : mkvmerge v9.1.0 ('Little Earthquakes') 64bit

    STATISTICSWRITINGDATEUTC : 2016-07-16 12:02:36

    STATISTICSTAGS : BPS DURATION NUMBEROFFRAMES NUMBEROFBYTES

    Audio #2

    ID : 3

    Format : AC-3

    Format/Info : Audio Coding 3

    Mode extension : CM (complete main)

    Codec ID : A_AC3

    Duration : 2h 11mn

    Bit rate mode : Constant

    Bit rate : 448 Kbps

    Channel(s) : 6 channels

    Channel positions : Front: L C R, Side: L R, LFE

    Sampling rate : 48.0 KHz

    Bit depth : 16 bits

    Compression mode : Lossy

    Stream size : 421 MiB (20%)

    Language : English

    Default : No

    Forced : No

    DURATION : 02:11:26.176000000

    NUMBEROFFRAMES : 246443

    NUMBEROFBYTES : 630894080

    STATISTICSWRITING_APP : mkvmerge v9.1.0 ('Little Earthquakes') 64bit

    STATISTICSWRITINGDATEUTC : 2016-07-16 12:02:36

    STATISTICSTAGS : BPS DURATION NUMBEROFFRAMES NUMBEROFBYTES

    Text #1

    ID : 4

    Format : UTF-8

    Codec ID : S_TEXT/UTF8

    Codec ID/Info : UTF-8 Plain Text

    Language : Italian

    Default : No

    Forced : No

    DURATION : 02:03:31.708000000

    NUMBEROFFRAMES : 1320

    NUMBEROFBYTES : 55091

    STATISTICSWRITING_APP : mkvmerge v9.1.0 ('Little Earthquakes') 64bit

    STATISTICSWRITINGDATEUTC : 2016-07-16 12:02:36

    STATISTICSTAGS : BPS DURATION NUMBEROFFRAMES NUMBEROFBYTES

    Text #2

    ID : 5

    Format : UTF-8

    Codec ID : S_TEXT/UTF8

    Codec ID/Info : UTF-8 Plain Text

    Title : SDH

    Language : English

    Default : No

    Forced : No

    DURATION : 02:07:14.522000000

    NUMBEROFFRAMES : 2109

    NUMBEROFBYTES : 76748

    STATISTICSWRITING_APP : mkvmerge v9.1.0 ('Little Earthquakes') 64bit

    STATISTICSWRITINGDATEUTC : 2016-07-16 12:02:36

    STATISTICSTAGS : BPS DURATION NUMBEROFFRAMES NUMBEROFBYTES

    Menu

    00:00:00.000 : :00:00:00.000

    00:10:48.958 : :00:10:48.958

    00:17:48.542 : :00:17:48.542

    00:28:15.875 : :00:28:15.875

    00:37:58.000 : :00:37:58.000

    00:49:00.042 : :00:49:00.042

    01:00:01.458 : :01:00:01.458

    01:08:34.917 : :01:08:34.917

    01:16:20.208 : :01:16:20.208

    01:32:49.333 : :01:32:49.333

    01:43:33.583 : :01:43:33.583

    01:52:17.125 : :01:52:17.125

    [/spoiler]

    **


    More at ibit.to
    And ibit.uno
    And ibit.am
    And ibit.ws

    Reviews

    'Legend' was not a very good film. It was poorly acted and written on the most part. It was predictable and just seemed like a forgettable straight-to-video gangster film. However, the only saving grace (and a really good one) was Tom Hardy. Hardy was brilliant in the main roles (playing both of the Kray twins). He made the film funny and really tense when it tried to be. The soundtrack was also really good. ★★★

    Comments

    Files

    Legend (2015).ita.eng.sub.ita.eng.iCV-MIRCrew.mkv 2.0 GB

    Stream

    Downloading Seeding Legend (2015).H264.Italian.English.Ac3.5.1.sub.ita.iCV-MIRCrew from to 0 peers.
    of
    0 b/s / ↗0 b/s