• 0
  • 0
  • 1,180
  • done
Sponsored Downloadondemand_video
73%

Labyrinth (1986)

  • Adventure Family Fantasy
  • When teen Sarah is forced to babysit Toby, her baby stepbrother, she summons Jareth the Goblin King to take him away. When he is actually kidnapped, Sarah is given just thirteen hours to solve a labyrinth and rescue him.

    expand_more
    English
  • $25,000,000
  • Description

    Labyrinth - Dove Tutto è Possibile (1986).BRrip.XviD - Italian English.Ac3 - 5.1 - Sub Ita.Eng.MIRCrew

    image

    ** NO FOUND ONLY ORIGINAL RELEASE **

    **Labyrinth - Dove Tutto è Possibile (1986)

    image

    image

    image

    Titolo originale Labyrinth

    Paese di produzione Gran Bretagna, USA

    Anno 1986

    Durata 102 min

    Genere fantasy

    Regia Jim Henson

    Soggetto Jim Henson, Dennis Lee

    Sceneggiatura Terry Jones

    Produttore Eric Rattray

    Fotografia Alex Thomson

    Montaggio John Grover

    Musiche Trevor Jones, canzoni di David Bowie

    Scenografia Elliot Scott

    image

    David Bowie: Jareth, il re dei Goblin

    Jennifer Connelly: Sarah

    Toby Froud: Toby

    Shelley Thompson: Matrigna

    Christopher Malcolm: Padre

    Shari Weiser: Gogol

    Warwick Davis: Goblin Corps

    Frank Oz: Saggio

    image.

    Sarah è una quindicenne figlia di genitori separati; la madre è una attrice famosa, mentre il padre si è risposato con una donna che lei non accetta (in realtà la matrigna non è ostile, anzi cerca a volte di aiutarla ma lei rifiuta ogni contatto) e si rifugia costantemente in un mondo di fiabe e balocchi. Una sera la ragazza deve fare da baby sitter al nuovo fratellino (avuto dal padre con la nuova compagna, e per questo odiato da Sarah), spaventato dal temporale....................

    image

    Fifteen-year-old Sarah accidentally wishes her baby half-brother, Toby, away to the Goblin King Jareth who will keep Toby if Sarah does not complete his Labyrinth in thirteen hours.....

    image

    image

    image

    image

    image

    image

    [spoiler]

    General

    Complete name : Labyrinth - Dove Tutto è Possibile (1986).ita.eng.sub.ita.eng.MIRCrewLabyrinth - Dove Tutto è Possibile (1986).ita.eng.sub.ita.eng.MIRCrew.avi

    Format : AVI

    Format/Info : Audio Video Interleave

    File size : 1.71 GiB

    Duration : 1h 41mn

    Overall bit rate : 2 423 Kbps

    Movie name : MIRCrew by robbyrs

    Writing application : VirtualDubMod 1.5.10.2 (build 2540/release)

    Writing library : VirtualDubMod build 2540/release

    Video

    ID : 0

    Format : MPEG-4 Visual

    Format profile : [email protected]
    Format settings, BVOP : No

    Format settings, QPel : No

    Format settings, GMC : No warppoints

    Format settings, Matrix : Default (H.263)

    Codec ID : XVID

    Codec ID/Hint : XviD

    Duration : 1h 41mn

    Bit rate : 1 513 Kbps

    Width : 720 pixels

    Height : 304 pixels

    Display aspect ratio : 2.35:1

    Frame rate : 23.976 fps

    Color space : YUV

    Chroma subsampling : 4:2:0

    Bit depth : 8 bits

    Scan type : Progressive

    Compression mode : Lossy

    Bits/(Pixel*Frame) : 0.288

    Stream size : 1.07 GiB (62%)

    Writing library : XviD 64

    Audio #1

    ID : 1

    Format : AC-3

    Format/Info : Audio Coding 3

    Mode extension : CM (complete main)

    Codec ID : 2000

    Duration : 1h 41mn

    Bit rate mode : Constant

    Bit rate : 448 Kbps

    Channel(s) : 6 channels

    Channel positions : Front: L C R, Side: L R, LFE

    Sampling rate : 48.0 KHz

    Bit depth : 16 bits

    Compression mode : Lossy

    Stream size : 324 MiB (18%)

    Alignment : Split accross interleaves

    Interleave, duration : 42 ms (1.00 video frame)

    Interleave, preload duration : 500 ms

    Audio #2

    ID : 2

    Format : AC-3

    Format/Info : Audio Coding 3

    Mode extension : CM (complete main)

    Codec ID : 2000

    Duration : 1h 41mn

    Bit rate mode : Constant

    Bit rate : 448 Kbps

    Channel(s) : 6 channels

    Channel positions : Front: L C R, Side: L R, LFE

    Sampling rate : 48.0 KHz

    Bit depth : 16 bits

    Compression mode : Lossy

    Stream size : 324 MiB (18%)

    Alignment : Split accross interleaves

    Interleave, duration : 42 ms (1.00 video frame)

    Interleave, preload duration : 500 ms

    [/spoiler]**

    &&e4t67uk


    More at ibit.to
    And ibit.uno
    And ibit.ws

    Reviews

    Comments

    Files

    Labyrinth - Dove Tutto è Possibile (1986).ita.eng.sub.ita.eng.MIRCrew.avi 1.7 GB
    Labyrinth - Dove Tutto è Possibile (1986).ita.eng.sub.ita.eng.MIRCrew.eng.idx 47 kB
    Labyrinth - Dove Tutto è Possibile (1986).ita.eng.sub.ita.eng.MIRCrew.eng.sub 2.7 MB
    Labyrinth - Dove Tutto è Possibile (1986).ita.eng.sub.ita.eng.MIRCrew.ita.idx 47 kB
    Labyrinth - Dove Tutto è Possibile (1986).ita.eng.sub.ita.eng.MIRCrew.ita.sub 2.7 MB

    Stream

    Downloading Seeding Labyrinth - Dove Tutto è Possibile (1986).BRrip.XviD - Italian English.Ac3 - 5.1 - Sub Ita.Eng.MIRCrew from to 0 peers.
    of
    0 b/s / ↗0 b/s