• 0
  • 0
  • 10
Sponsored Downloadondemand_video
73%

Labyrinth (1986)

  • Adventure Family Fantasy
  • When teen Sarah is forced to babysit Toby, her baby stepbrother, she summons Jareth the Goblin King to take him away. When he is actually kidnapped, Sarah is given just thirteen hours to solve a labyrinth and rescue him.

    expand_more
    English
  • $25,000,000
  • Description

    The teenager Sarah is forced by her father and her stepmother to babysit her baby brother Toby while they are outside home. Toby does not stop crying and Sarahwishes that her brother be taken by the Goblin King. Out of the blue| Toby stops crying and when Sarah looks for him in the cradle| she learns that her wish wasgranted and the Goblin King Jareth has taken him to his castle in the Goblin City in the middle of a labyrinth. Sarah repents and asks Jareth to give Toby back; butthe Goblin King tells her that she has to rescue her brother before midnight| otherwise Toby will be turned into a goblin. Soon Sarah teams up with the coward goblinHoggle| the beast Ludo and the knight Didymus and his dog Ambrosius in her journey. Will they rescue Toby in time?

    http://imdb.com/title/tt0091369/

    image

    image

    image

    image

    image

    MediaInfo:

    Video

    ID                                       : 1

    Format                                   : AVC

    Format/Info                              : Advanced Video Codec

    Format profile                           : High@L4.1

    Format settings, CABAC                   : Yes

    Format settings, ReFrames                : 4 frames

    Codec ID                                 : avc1

    Codec ID/Info                            : Advanced Video Coding

    Duration                                 : 1h 41mn

    Bit rate                                 : 2 500 Kbps

    Width                                    : 1 920 pixels

    Height                                   : 808 pixels

    Display aspect ratio                     : 2.40:1

    Frame rate mode                          : Constant

    Frame rate                               : 23.976 (23976/1000) fps

    Color space                              : YUV

    Chroma subsampling                       : 4:2:0

    Bit depth                                : 8 bits

    Scan type                                : Progressive

    Bits/(Pixel*Frame)                       : 0.067

    Stream size                              : 1.76 GiB (92%)

    Writing library                          : x264 core 148 r2597M e86f3a1

    Encoding settings                        : cabac=1 / ref=4 / deblock=1:-1:-1 / analyse=0x3:0x113 / me=umh / subme=9 / psy=1 / psyrd=1.00:0.15 / mixedref=1 / merange=24 / chromame=1 / trellis=2 / 8x8dct=1 / cqm=0 / deadzone=21,11 / fastpskip=1 / chromaqpoffset=-3 / threads=32 / lookaheadthreads=4 / slicedthreads=0 / nr=0 / decimate=1 / interlaced=0 / bluraycompat=0 / constrainedintra=0 / bframes=3 / bpyramid=2 / badapt=2 / bbias=0 / direct=3 / weightb=1 / opengop=0 / weightp=2 / keyint=250 / keyintmin=25 / scenecut=40 / intrarefresh=0 / rclookahead=50 / rc=2pass / mbtree=1 / bitrate=2500 / ratetol=1.0 / qcomp=0.60 / qpmin=0 / qpmax=69 / qpstep=4 / cplxblur=20.0 / qblur=0.5 / vbvmaxrate=31250 / vbvbufsize=31250 / nalhrd=none / filler=0 / ipratio=1.40 / aq=3:1.00

    Encoded date                             : UTC 2016-09-18 19:57:18

    Tagged date                              : UTC 2016-09-18 19:57:18

    Audio

    ID                                       : 2

    Format                                   : AAC

    Format/Info                              : Advanced Audio Codec

    Format profile                           : LC

    Codec ID                                 : 40

    Duration                                 : 1h 41mn

    Duration_LastFrame                       : 32ms

    Bit rate mode                            : Constant

    Bit rate                                 : 224 Kbps

    Channel(s)                               : 2 channels

    Channel(s)_Original                      : 6 channels

    Channel positions                        : Front: L C R, Side: L R, LFE

    Sampling rate                            : 48.0 KHz

    Frame rate                               : 46.875 fps (1024 spf)

    Compression mode                         : Lossy

    Stream size                              : 162 MiB (8%)

    Language                                 : English

    Default                                  : Yes

    Alternate group                          : 1

    Encoded date                             : UTC 2016-09-18 19:57:18

    Tagged date                              : UTC 2016-09-18 19:57:18


    More at ibit.to
    And ibit.uno
    And ibit.ws

    Reviews

    Comments

    Files

    Labyrinth.1986.REMASTERED.1080p.BluRay.H264.AAC-RARBG.mp4 1.9 GB
    Labyrinth.1986.REMASTERED.1080p.BluRay.H264.AAC-RARBG.nfo 4.0 kB
    RARBG.COM.mp4 993 kB
    RARBG.COM.txt 30 B
    Subs/2_Eng.srt 68 kB
    Subs/3_Eng.srt 83 kB

    Stream

    Downloading Seeding Labyrinth.1986.REMASTERED.1080p.BluRay.H264.AAC-RARBG from to 0 peers.
    of
    0 b/s / ↗0 b/s