• 0
  • 0
  • done
Anonymous Downloadondemand_video
  • Kung Fu Hustle (2004) BDRemux 1080p [Rus/Eng/Chinese]
  • 12 GB
  • Jotnar
  • Kung Hustle 2004 BDRemux 1080p Chinese Rus Eng
  • English, Chinese, Russian
  • HD - Movies
Warning! Use a VPN When Downloading Torrents!
Your IP Address is ,
Your Internet Provider can see when you download torrents! Hide your IP ADDRESS with a VPN
We strongly recommend hide.me VPN to hide your torrenting. It's FREE!
DOWNLOAD VPN
73%

Kung Fu Hustle (2004)

  • Action Comedy Crime Fantasy
  • Set in Canton, China in the 1940s, the story revolves in a town ruled by the Axe Gang, Sing who desperately wants to become a member. He stumbles into a slum ruled by eccentric landlords who turns out to be the greatest kung-fu masters in disguise. Sing's actions eventually cause the Axe Gang and the slumlords to engage in an explosive kung-fu battle. Only one side will win and only one hero will emerge as the greatest kung-fu master of all.

    expand_more
  • $20,000,000
  • Description

    Разборки в стиле Кунг-фу / Kung Fu Hustle

    image

    Год выпуска : 2004

    Страна : Китай

    Жанр : Веселый кунг-фу экшн

    Продолжительность : 99 мин

    Перевод : Профессиональный (многоголосый, закадровый)

    Русские субтитры : нет

    Режиссер :

    Стивен Чоу

    В ролях :

    Stephen Chow, Yuen Wah, Leung Siu Lung, Dong Zhi Hua, Yuen Qiu

    Описание :

    Не для слабых духом была жизнь в сороковых годах XX века в китайском Кантоне! Страна опустошена войной, а город поделен на зоны влияния могущественных уличных банд - и коли тебя грабят только раз в неделю, считай крупно повезло. Герой этого фильма страстно желает одного: перестать быть простым "лохом"' и стать крутым бандитом, и лучше всего - членом знаменитой банды Топора. Вот где пригодятся его впечатляющие навыки в кунг-фу! Только капризная Фортуна отвергает все попытки начинающего гангстера сделать преступную карьеру, но незадачливый Аль Капоне так просто не сдается - ведь не зря боги отпустили ему куда больше упорства, чем ума!..



    Доп. информация :

    Релиз от команды HDTRACKER, перепакованный в матрешку



    Качество :

    BDRemux

    Формат :

    MKV

    Видео кодек : MPEG2

    Аудио кодек : dts, AC3

    Видео :

    1920x1080, MPEG2, 23.976 fps

    Аудио :

    Russian AC3 5.1 (448 kbps) (многоголоска) , English AC3 5.1 (640 kbps) (дубляж) ,

    Chinese dts 5.1 (768 kbps)

    IMDB User Rating: 7.8/10 (29,806 votes)

    MediaInfo

    Общее
    Уникальный идентификатор : 194214672711049103082806652995736551694 (0x921C62A85A47629793DBCCD08D49C10E)
    Полное имя : E:1Kung.Fu.Hustle.1080p.Blu-Ray.MPEG2.Rus.mkv
    Формат : Matroska
    Версия формата : Version 1
    Размер файла : 12,5 Гбайт
    Продолжительность : 1 ч. 39 м.
    Режим общего битрейта : Переменный
    Общий поток : 18,0 Мбит/сек
    Дата кодирования : UTC 2008-04-27 17:52:50
    Программа кодирования : mkvmerge v2.1.0 ('Another Place To Fall') built on Aug 19 2007 13:40:07
    Библиотека кодирования : libebml v0.7.7 + libmatroska v0.8.1
    Видео
    Идентификатор : 1
    Формат : MPEG Video
    Версия формата : Version 2
    Профиль формата : [email protected]
    Параметр BVOP формата : Нет
    Параметр матрицы формата : Выборочная
    Идентификатор кодека : VMPEG2
    Идентификатор кодека/Информация : MPEG 1 or 2 Video
    Продолжительность : 1 ч. 39 м.
    Вид битрейта : Переменный
    Битрейт : 15,8 Мбит/сек
    Максимальный битрейт : 30,0 Мбит/сек
    Ширина : 1920 пикселей
    Высота : 1080 пикселей
    Соотношение сторон : 16:9
    Режим частоты кадров : Постоянный
    Частота кадров : 23,976 кадра/сек
    Цветовое пространство : YUV
    Субдискретизация насыщенности : 4:2:0
    Битовая глубина : 8 бит
    Тип развёртки : Прогрессивная
    Метод сжатия : С потерями
    Бит/(Пиксели*Кадры) : 0.318
    Временной код первого кадра : 00:59:58:00
    Оригинал временного кода : Group of pictures header
    Размер потока : 11,0 Гбайт (88%)
    Язык : English
    Default : Да
    Forced : Нет
    Аудио #1
    Идентификатор : 2
    Формат : AC-3
    Формат/Информация : Audio Coding 3
    Расширение режима : CM (complete main)
    Параметр Endianness формата : Big
    Идентификатор кодека : A
    AC3
    Продолжительность : 1 ч. 39 м.
    Вид битрейта : Постоянный
    Битрейт : 448 Кбит/сек
    Каналы : 6 каналов
    Расположение каналов : Front: L C R, Side: L R, LFE
    Частота : 48,0 КГц
    Битовая глубина : 16 бит
    Метод сжатия : С потерями
    Размер потока : 319 Мбайт (2%)
    Заголовок : Russian AC3 448 Kbps Mnogogolos
    Язык : Russian
    Default : Да
    Forced : Нет
    Аудио #2
    Идентификатор : 3
    Формат : AC-3
    Формат/Информация : Audio Coding 3
    Расширение режима : CM (complete main)
    Параметр Endianness формата : Big
    Идентификатор кодека : AAC3
    Продолжительность : 1 ч. 39 м.
    Вид битрейта : Постоянный
    Битрейт : 640 Кбит/сек
    Каналы : 6 каналов
    Расположение каналов : Front: L C R, Side: L R, LFE
    Частота : 48,0 КГц
    Битовая глубина : 16 бит
    Метод сжатия : С потерями
    Размер потока : 455 Мбайт (4%)
    Заголовок : English AC3 640 Kbps Dubbed
    Язык : English
    Default : Нет
    Forced : Нет
    Аудио #3
    Идентификатор : 4
    Формат : DTS
    Формат/Информация : Digital Theater Systems
    Режим : 16
    Параметр Endianness формата : Big
    Идентификатор кодека : A
    DTS
    Продолжительность : 1 ч. 39 м.
    Вид битрейта : Постоянный
    Битрейт : 755 Кбит/сек
    Каналы : 6 каналов
    Расположение каналов : Front: L C R, Side: L R, LFE
    Частота : 48,0 КГц
    Битовая глубина : 16 бит
    Метод сжатия : С потерями
    Размер потока : 537 Мбайт (4%)
    Заголовок : Chinese dts 768 Kbps
    Язык : Chinese
    Default : Нет
    Forced : Нет

    Скриншоты

    imageimageimageimageimageimageimageimageimageimage


    More at ibit.to
    And ibit.uno
    And ibit.am
    And ibit.ws

    Reviews

    Quite an experience, and in a great way as well! Went into this one totally blind as to its contents, truth is, is that I was mooching round the shops yesterday and came across an Asian triple pack DVD at a bargain price, since one of the films was Jet Li starrer Unleashed, i thought it was worth the cheap price on offer. Got home and the write up on the back of the case didn't give much away as regards plot for Kung Fu Hustle, an Axe Gang, some guy named Sing wants to be in the gang, and that some creaky old residents in a place called Pig Sty Ally are tougher than they look. What I got was what I can only describe as a live cartoon full of class and style, the sort of flip side to the more arty Asian films that have (rightly) become massively popular in the subsequent decadse. Written, directed, produced and starring Stephen Chow (Sing), Kung Fu Hustle is a remarkably breathless piece of work, the plot is threadbare for sure, but it really matters not, because Chow has fused the grand old genre staple punch up with balletic comedy, it's quite something to behold. It's as loud as a face off between Motorhead & Iron Maiden, yet it's just so flipping tender at the same time! Incredible sequences will dazzle you one moment and then have you laughing the next, I'm quite annoyed that I didn't catch on to this film back in 2004, but even now some years later this film is still a breath of fresh air on the home format release. See it and roll with it, enjoy. 9/10

    Comments

    11 years ago

    720р будет?

    Files

    Kung.Fu.Hustle.1080p.Blu-Ray.MPEG2.Rus.mkv 12 GB

    Stream

    Downloading Seeding Kung Fu Hustle (2004) BDRemux 1080p [Rus/Eng/Chinese] from to 0 peers.
    of
    0 b/s / ↗0 b/s