• 2
  • 6
Anonymous Downloadondemand_video
Warning! Use a VPN When Downloading Torrents!
Your IP Address is ,
Your Internet Provider can see when you download torrents! Hide your IP ADDRESS with a VPN
We strongly recommend hide.me VPN to hide your torrenting. It's FREE!
DOWNLOAD VPN
68%

Krypton: A Better Yesterday(2019)

  • 2 5
  • Action & Adventure Drama Sci-Fi & Fantasy
  • Amidst a hostage negotiation that could end the war on Krypton, Seg seeks answers about Lyta.

    expand_more
    English

    Description

    imageimage

    imageimage

    imageimageimageimage

    Media Information

    Unique ID                                : 245211107990946540231451276037943235093 (0xB879F109EB75C74C9D9090C4E7FC9215)

    Complete name                            : Krypton S02E05 A Better Yesterday 1080p WEBrip x265 DDP5.1 D0ct0rLew[SEV].mkv

    Format                                   : Matroska

    Format version                           : Version 4

    File size                                : 1.13 GiB

    Duration                                 : 42 min 7 s

    Overall bit rate                         : 3 833 kb/s

    Encoded date                             : UTC 2019-07-11 23:33:15

    Writing application                      : mkvmerge v29.0.0 ('Like It Or Not') 64-bit

    Writing library                          : libebml v1.3.6 + libmatroska v1.4.9

    Video

    ID                                       : 2

    Format                                   : HEVC

    Format/Info                              : High Efficiency Video Coding

    Format profile                           : Main [email protected]@Main

    Codec ID                                 : V_MPEGH/ISO/HEVC

    Duration                                 : 42 min 7 s

    Bit rate                                 : 3 191 kb/s

    Width                                    : 1 920 pixels

    Height                                   : 1 080 pixels

    Display aspect ratio                     : 16:9

    Frame rate mode                          : Constant

    Frame rate                               : 23.976 (24000/1001) FPS

    Color space                              : YUV

    Chroma subsampling                       : 4:2:0

    Bit depth                                : 10 bits

    Bits/(Pixel*Frame)                       : 0.064

    Stream size                              : 961 MiB (83%)

    Writing library                          : x265 3.0_Au+32-a46ded2c1411:[Windows][MSVC 1921][64 bit] 10bit

    Encoding settings                        : cpuid=1111039 / frame-threads=3 / numa-pools=8 / wpp / no-pmode / no-pme / no-psnr / no-ssim / log-level=2 / input-csp=1 / input-res=1920x1080 / interlace=0 / total-frames=60597 / level-idc=0 / high-tier=1 / uhd-bd=0 / ref=4 / no-allow-non-conformance / no-repeat-headers / annexb / no-aud / no-hrd / info / hash=0 / no-temporal-layers / open-gop / min-keyint=23 / keyint=250 / gop-lookahead=0 / bframes=8 / b-adapt=2 / b-pyramid / bframe-bias=0 / rc-lookahead=90 / lookahead-slices=4 / scenecut=40 / radl=0 / no-splice / no-intra-refresh / ctu=64 / min-cu-size=8 / no-rect / no-amp / max-tu-size=32 / tu-inter-depth=1 / tu-intra-depth=1 / limit-tu=0 / rdoq-level=2 / dynamic-rd=0.00 / no-ssim-rd / signhide / no-tskip / nr-intra=0 / nr-inter=0 / no-constrained-intra / strong-intra-smoothing / max-merge=3 / limit-refs=1 / limit-modes / me=3 / subme=7 / merange=92 / temporal-mvp / weightp / no-weightb / no-analyze-src-pics / deblock=3:3 / sao / no-sao-non-deblock / rd=4 / early-skip / rskip / no-fast-intra / no-tskip-fast / no-cu-lossless / b-intra / no-splitrd-skip / rdpenalty=0 / psy-rd=1.00 / psy-rdoq=1.00 / no-rd-refine / no-lossless / cbqpoffs=0 / crqpoffs=0 / rc=crf / crf=19.5 / qcomp=0.60 / qpstep=4 / stats-write=0 / stats-read=0 / ipratio=1.40 / pbratio=1.30 / aq-mode=3 / aq-strength=1.00 / cutree / zone-count=0 / no-strict-cbr / qg-size=32 / no-rc-grain / qpmax=69 / qpmin=0 / no-const-vbv / sar=0 / overscan=0 / videoformat=5 / range=0 / colorprim=2 / transfer=2 / colormatrix=2 / chromaloc=0 / display-window=0cll=0,0 / min-luma=0 / max-luma=1023 / log2-max-poc-lsb=8 / vui-timing-info / vui-hrd-info / slices=1 / no-opt-qp-pps / no-opt-ref-list-length-pps / no-multi-pass-opt-rps / scenecut-bias=0.05 / no-opt-cu-delta-qp / no-aq-motion / no-hdr / no-hdr-opt / no-dhdr10-opt / no-idr-recovery-sei / analysis-reuse-level=5 / scale-factor=0 / refine-intra=0 / refine-inter=0 / refine-mv=0 / refine-ctu-distortion=0 / no-limit-sao / ctu-info=0 / no-lowpass-dct / refine-analysis-type=0 / copy-pic=1 / max-ausize-factor=1.0 / no-dynamic-refine / no-single-sei / no-hevc-aq / no-svt / no-field / qp-adaptation-range=1.00

    Default                                  : Yes

    Forced                                   : No

    Audio

    ID                                       : 3

    Format                                   : E-AC-3

    Format/Info                              : Enhanced AC-3

    Commercial name                          : Dolby Digital Plus

    Codec ID                                 : A_EAC3

    Duration                                 : 42 min 7 s

    Bit rate mode                            : Constant

    Bit rate                                 : 640 kb/s

    Channel(s)                               : 6 channels

    Channel layout                           : L R C LFE Ls Rs

    Sampling rate                            : 48.0 kHz

    Frame rate                               : 31.250 FPS (1536 SPF)

    Compression mode                         : Lossy

    Stream size                              : 193 MiB (17%)

    Language                                 : English

    Service kind                             : Complete Main

    Default                                  : Yes

    Forced                                   : No

    Text

    ID                                       : 1

    Format                                   : UTF-8

    Codec ID                                 : S_TEXT/UTF8

    Codec ID/Info                            : UTF-8 Plain Text

    Duration                                 : 41 min 58 s

    Bit rate                                 : 80 b/s

    Count of elements                        : 859

    Stream size                              : 24.7 KiB (0%)

    Language                                 : English

    Default                                  : Yes

    Forced                                   : No

    We have no issue with individuals posting or re-uploading our torrents on a platform we aren't on. However, if this is something you'd like to do, please do so in a 'as-is' format. We ask that you do not create a new torrent, include all descriptions you see above including the SEV logo, tags, notes and screenshots.

    If you'd like to become a permanent poster on a website we don't post to, feel free to get in contact with a Sublime Encoded Video member.

    **We are recruiting/training new members for SEV & seedbox providers as well as people to help out with subtitles.

    As you already know, we deliver quality, so you know the standard.

    If you're interested, feel free to contact any of the team members.**


    More at ibit.to
    And ibit.uno
    And ibit.am
    And ibit.ws

    Reviews

    Comments

    Files

    Krypton S02E05 A Better Yesterday 1080p WEBrip x265 DDP5.1 D0ct0rLew[SEV].mkv 1.1 GB

    Stream

    Downloading Seeding Krypton S02E05 A Better Yesterday 1080p WEBrip x265 DDP5.1 D0ct0rLew[SEV].mkv from to 0 peers.
    of
    0 b/s / ↗0 b/s