• 0
  • 0
Anonymous Download
  • Konoyo no Hate de Koi o Utau Shoujo YU-NO - AniLibria [1080p]
  • 1.5 GB
  • efill
  • Konoyo Hate Koi Utau Shoujo AniLibria 1080p
  • Аниме
Warning! Use a VPN When Downloading Torrents!
Your IP Address is ,
Your Internet Provider can see when you download torrents! Hide your IP ADDRESS with a VPN
We strongly recommend hide.me VPN to hide your torrenting. It's FREE!
DOWNLOAD VPN

Description

image


image

Страна : Япония

Год выпуска : 2019

Жанр : Драма, Фантастика

Тип : TV

Продолжительность : 26 эп. ~24 мин

Режиссер : Тэцуо Хиракава

Студия : image


Озвучка : Двухголосая /

AniLibria | SAMPLE

— Derenn

(муж)

— OkanaTsoy

(жен)

Перевод :

Sovet Romantica

Описание : Такуя Арима — молодой студент, отец которого был историком и проводил различные исследования на тему возможности существования параллельных миров. В один погожий день, по непонятным причинам, отец Такуи бесследно исчез. Во время летних каникул парень получает от него странную посылку и письмо, в котором написано, что при помощи устройства, которое он получил, можно будет путешествовать между параллельными мирами. Сначала Такуя не воспринимает содержание послания всерьёз, однако вскоре понимает, что это — правда, а за устройством охотится некая преступная группировка. Теперь герою предстоит найти своего отца и узнать истинное предназначение попавшего к нему прибора.


Информационные ссылки: : AniDB | MyAnimeList | World Art


Качество : WEBRip

Тип релиза : Без хардсаба

Формат видео : MKV

Автор рипа :

Erai-Raws

Видео : AVC, 8 bits, 1920x1080, ~8000 kbps, 23,976 fps

Аудио : RUS, AAC, 48000 Hz, 128 kbps, 2 ch; Язык Русский (в составе контейнера) ;

Аудио 2 : JAP, AAC, 48000 Hz, 253 kbps, 2 ch;

Субтитры : RUS, ASS (надписи + полные, в составе контейнера)

Sovet Romantica

(AiR , ред. ThirTeen)


Подробные тех. данные

`Формат : Matroska
Версия формата : Version 4
Размер файла : 1,36 Гбайт
Продолжительность : 23 м. 47 с.
Общий поток : 8197 Кбит/сек
Дата кодирования : UTC 2019-04-05 18:46:03
Программа кодирования : mkvmerge v22.0.0 ('At The End Of The World') 64-bit
Библиотека кодирования : libebml v1.3.5 + libmatroska v1.4.8

Видео
Идентификатор : 1
Формат : AVC
Формат/Информация : Advanced Video Codec
Профиль формата : [email protected]
Настройки формата : CABAC / 4 Ref Frames
Параметр CABAC формата : Да
Параметр RefFrames формата : 4 кадра
Идентификатор кодека : VMPEG4/ISO/AVC
Продолжительность : 23 м. 47 с.
Битрейт : 8000 Кбит/сек
Ширина : 1920 пикселей
Высота : 1080 пикселей
Соотношение сторон : 16:9
Режим частоты кадров : Постоянный
Частота кадров : 23,976 (24000/1001) кадра/сек
Цветовое пространство : YUV
Субдискретизация насыщенности : 4:2:0
Битовая глубина : 8 бит
Тип развёртки : Прогрессивная
Бит/(Пиксели*Кадры) : 0.161
Размер потока : 1,30 Гбайт (95%)
Заголовок : [Erai-Raws]
Библиотека кодирования : x264 core 157 r2948 dada181
Настройки программы : cabac=1 / ref=1 / deblock=1:0:0 / analyse=0x3:0x113 / me=hex / subme=7 / psy=1 / psy
rd=1.00:0.00 / mixedref=0 / merange=16 / chromame=1 / trellis=1 / 8x8dct=1 / cqm=0 / deadzone=21,11 / fastpskip=1 / chromaqpoffset=-2 / threads=24 / lookaheadthreads=4 / slicedthreads=0 / nr=0 / decimate=1 / interlaced=0 / bluraycompat=0 / constrainedintra=0 / bframes=2 / bpyramid=2 / badapt=1 / bbias=0 / direct=1 / weightb=1 / opengop=0 / weightp=2 / keyint=48 / keyintmin=4 / scenecut=40 / intrarefresh=0 / rclookahead=40 / rc=cbr / mbtree=1 / bitrate=8000 / ratetol=1.0 / qcomp=0.60 / qpmin=0 / qpmax=69 / qpstep=4 / vbvmaxrate=8000 / vbvbufsize=24000 / nalhrd=none / filler=0 / ip_ratio=1.40 / aq=1:1.00
Default : Да
Forced : Нет

Аудио #1
Идентификатор : 2
Формат : AAC LC
Формат/Информация : Advanced Audio Codec Low Complexity
Идентификатор кодека : A_AAC-2
Продолжительность : 23 м. 47 с.
Битрейт : 128 Кбит/сек
Каналы : 2 канала
Channel layout : L R
Частота : 48,0 КГц
Частота кадров : 46,875 кадров/сек (1024 SPF)
Метод сжатия : С потерями
Размер потока : 21,8 Мбайт (2%)
Заголовок : Anilibria
Язык : Russian
Default : Да
Forced : Нет

Аудио #2
Идентификатор : 3
Формат : AAC LC
Формат/Информация : Advanced Audio Codec Low Complexity
Идентификатор кодека : A_AAC-2
Продолжительность : 23 м. 47 с.
Битрейт : 253 Кбит/сек
Каналы : 2 канала
Channel layout : L R
Частота : 48,0 КГц
Частота кадров : 46,875 кадров/сек (1024 SPF)
Метод сжатия : С потерями
Размер потока : 43,1 Мбайт (3%)
Язык : Japanese
Default : Нет
Forced : Нет

Текст #1
Идентификатор : 4
Формат : ASS
Идентификатор кодека : S_TEXT/ASS
Идентификатор кодека/Информация : Advanced Sub Station Alpha
Продолжительность : 22 м. 42 с.
Битрейт : 11 бит/сек
ElementCount : 15
Метод сжатия : Без потерь
Размер потока : 1,85 Кбайт (0%)
Заголовок : Надписи
Язык : Russian
Default : Да
Forced : Да

Текст #2
Идентификатор : 5
Формат : ASS
Идентификатор кодека : S_TEXT/ASS
Идентификатор кодека/Информация : Advanced Sub Station Alpha
Продолжительность : 23 м. 31 с.
Битрейт : 153 бит/сек
ElementCount : 395
Метод сжатия : Без потерь
Размер потока : 26,5 Кбайт (0%)
Заголовок : Sovet Romantica
Язык : Russian
Default : Нет
Forced : Нет `


Список эпизодов

  1. You Know?

(Ты знаешь?)

    1. ...

Скриншоты

image image image image image


image image


More at ibit.to
And ibit.uno
And ibit.am
And ibit.ws

Comments

Files

Konoyo no Hate de Koi o Utau Shoujo YU-NO - AniLibria [1080p]Konoyo_no_Hate_de_Koi_o_Utau_Shoujo_YU-NO_[01]_[AniLibria]_[1080p].mkv 1.5 GB

Stream

Downloading Seeding Konoyo no Hate de Koi o Utau Shoujo YU-NO - AniLibria [1080p] from to 0 peers.
of
0 b/s / ↗0 b/s