• -
  • -
  • done
Download
  • Konnichiwa Anne: Before Green Gables
  • 8.5 GB
  • игорь 25
  • Konnichiwa Anne Green Gables
  • Аниме (QC подраздел)

Description

Здравствуй, Энн! Что было до Зеленых Крыш / Konnichiwa Anne: Before Green Gables / Anne of Green Gables Prequel / Akage no Anne Prequel / Konnichiwa Anne

image

Страна : Япония

Год выпуска : 2009

Жанр : драма, семейный, исторический, повседневность

Тип : TV

Продолжительность : 39 эп, ~24 мин

Режиссер : Ятабэ Кацуёси

Студия : Nippon Animation

Описание : Эта история о рыжеволосой девочке с невероятным воображением и неугомонным характером по имени Энн Ширли. Ей предстоит пройти трудный путь сиротской жизни с удивительной способностью менять людей, дарить им радость и счастье. Для каждого Энн Ширли становится другом. Может и ты не исключение?

Сэмпл : http://sendfile.su/1646616

Перевод : двухголосая

Amazing Dubbing

  • Helen (Женский) & Altair(голос Мужской), работа со звуком KeFir

Качество : WEBRip

Тип релиза : Без хардсаба

Формат видео : MP4

Наличие линковки : Нет

Видео : AVC, 1280x720, 16:9, ~ 1500 Kbps, 23.976 fps, 8bit

Аудио : AAC, 48,0 KHz, 2(ch)stereo, 129kbps Язык Русский (в составе контейнера)

Подробные тех. данные

`
Общее
Полное имя : B:театр мировых шедевров Аниме5.ЭннЭнн. Что было до зелёных крыш. 2009гЗдравствуй,Энн!ЧтобылодоЗелёныхКрыш1серия.mp4
Формат : MPEG-4
Профиль формата : Base Media
Идентификатор кодека : isom (isom/iso2/avc1/mp41)
Размер файла : 250 Мбайт
Продолжительность : 24 м. 29 с.
Общий поток : 1 427 Кбит/сек
Программа кодирования : Lavf58.26.101

Видео
Идентификатор : 1
Формат : AVC
Формат/Информация : Advanced Video Codec
Профиль формата : [email protected]
Настройки формата : CABAC / 4 Ref Frames
Параметр CABAC формата : Да
Параметр RefFrames формата : 4 кадра
Идентификатор кодека : avc1
Идентификатор кодека/Информация : Advanced Video Coding
Продолжительность : 24 м. 29 с.
Битрейт : 1 293 Кбит/сек
Ширина : 1 280 пикселей
Высота : 720 пикселей
Соотношение сторон : 16:9
Режим частоты кадров : Постоянный
Частота кадров : 23,976 (24000/1001) кадра/сек
Цветовое пространство : YUV
Субдискретизация насыщенности : 4:2:0
Битовая глубина : 8 бит
Тип развёртки : Прогрессивная
Бит/(Пиксели*Кадры) : 0.059
Размер потока : 227 Мбайт (91%)
Библиотека кодирования : x264 core 157 r2969 d4099dd
Настройки программы : cabac=1 / ref=1 / deblock=1:1:1 / analyse=0x3:0x3 / me=dia / subme=1 / psy=1 / psyrd=0.40:0.00 / mixedref=0 / merange=16 / chromame=1 / trellis=0 / 8x8dct=1 / cqm=0 / deadzone=21,11 / fastpskip=1 / chromaqpoffset=0 / threads=12 / lookaheadthreads=2 / slicedthreads=0 / nr=0 / decimate=1 / interlaced=0 / bluraycompat=0 / constrainedintra=0 / bframes=5 / bpyramid=2 / badapt=1 / bbias=0 / direct=1 / weightb=1 / opengop=0 / weightp=1 / keyint=250 / keyintmin=23 / scenecut=40 / intrarefresh=0 / rc=crf / mbtree=0 / crf=23.0 / qcomp=0.60 / qpmin=0 / qpmax=69 / qpstep=4 / ipratio=1.40 / pb_ratio=1.30 / aq=1:0.60
Язык : Japanese
Codec configuration box : avcC

Аудио
Идентификатор : 2
Формат : AAC LC
Формат/Информация : Advanced Audio Codec Low Complexity
Идентификатор кодека : mp4a-40-2
Продолжительность : 24 м. 29 с.
Вид битрейта : Постоянный
Битрейт : 129 Кбит/сек
Каналы : 2 канала
Channel layout : L R
Частота : 48,0 КГц
Частота кадров : 46,875 кадров/сек (1024 SPF)
Метод сжатия : С потерями
Размер потока : 22,5 Мбайт (9%)
Default : Да
Alternate group : 1

`

Список эпизодов

  1. Рыжеволосая Энн
    1. Имя «Энн»
    2. Маленький жёлтый домик
    3. Золотой источник
    4. Элизина любовь
    5. Рождение надежды
    6. Зимний ветер и розы
    7. Проверка прошлым
    8. В Мэрисвилл
    9. Загадочный Яичный Человек
    10. Зимний подсолнух
    11. Первый день в школе
    12. Друг по имени Сэди
    13. Мечта Рандольфа
    14. Идём на пикник!
    15. Больше книг!
    16. Наша сцена
    17. Там, где любовь
    18. Грустное чаепитие
    19. Опасная ловушка
    20. Прощальный снег
    21. Удивительный гость
    22. Слабая жизнь
    23. Волшебство Рождества
    24. Холоднее, чем снег
    25. Прощай, семья томасов
    26. На другом конце холма
    27. Учёба в одиночестве
    28. Секрет мисс Хагати
    29. Воспоминание о Вилле Морского Бриза
    30. Последнее желание
    31. Начало кошмара
    32. Кошмар наяву
    33. Далёкий город
    34. Слёзы Тессы
    35. Письмо надежды
    36. В объятиях солнца
    37. Утро, когда распускаются цветы
    38. Остров Принца Эдуарда

Отличия

https://rutracker.org/forum/viewtopic.php?t=5749635 наличие озвучки
https://rutracker.org/forum/viewtopic.php?t=1829872 наличие озвучки
https://rutracker.org/forum/viewtopic.php?t=6011753 альтернативная озвучка

Скриншоты

image image image image image image image


More at ibit.to
And ibit.uno
And ibit.am
And ibit.ws

Comments

2 weeks ago

Оформите, согласно правилам QC Нужен семпл, имена озвучивающих. Отличия от раздач Основного подраздела не надо указывать.

1 week ago

Вам нужно прописать отличия от этих раздач: Где наличие озвучки, где - альтернативная.

1 week ago

Nanvel писал(а): 83117101Вам нужно прописать отличия от этих раздач: Где наличие озвучки, где - альтернативная. Спасибо. Исправил.

Files

Stream

Downloading Seeding Konnichiwa Anne: Before Green Gables from to 0 peers.
of
0 b/s / ↗0 b/s