• 2,147,483,647
  • 216
Downloadondemand_video

Description

VIDEO SOURCE-CPG...ADUIO SOURCE-PIMP4003....TS IS STILL CAM EXCEPT IT HAS LINE AUDIO...MY SOURCE GAVE ME LINE AUDIO BUT SAME PARTS OF IT WAS MESSED UP SO I HAD TO TAKE AUDIO FROM ANOTHER SOURCE FOR THAT PART..SO IT GOES FROM LINE TO CAM AUDIO FOR A BIT BUT THAT'S ABOUT IT. TOOK ME A WHILE TO DO THIS..ALSO SOME RUSSIAN BUT NOT THAT MUCH SINCE I COULD NOT FIND AUDIO FOR THAT PART...TAKE IT OR LEAVE IT...BEST OUT FOR NOW.......ENJOY...PIMP4003

SCREENSHOTS GO HERE...http://pimp4003.net/torrents...77ec7fdfa22567261d9958b2046c

I am looking for: Pre-Retail Supplier Unreleased DVD/BluRay/Web-Dls/R5/CAM/TS If you have something to offer, please contact ME: [email protected] WE CAN WORK OUT A GREAT DEAL THAT WORKS OUT FOR EVERY PARTY.

image

image

** PIMP THE ONE AND ONLY PIMPSTER.....PRESENTS **

https://www.facebook.com/OfficialPimp4003

https://twitter.com/KingPimp4003

image

Kingsman The Secret Service 2015 720p HDTS x264 Pimp4003

http://www.imdb.com/title/tt28...

A spy organization recruits an unrefined, but promising street kid into the agency's ultra-competitive training program, just as a global threat emerges from a twisted tech genius.

Director: Matthew Vaughn

Writers: Jane Goldman (screenplay), Matthew Vaughn(screenplay), 2 more credits »

Stars: Colin Firth, Taron Egerton, Samuel L. Jackson |See full cast and crew »

Video

ID : 1

Format : MPEG-4 Visual

Format profile : [email protected]

Format settings, BVOP : No

Format settings, QPel : No

Format settings, GMC : No warppoints

Format settings, Matrix : Default (H.263)

Codec ID : 20

Duration : 2h 1mn

Bit rate : 2 563 Kbps

Width : 1 280 pixels

Height : 536 pixels

Display aspect ratio : 2.40:1

Frame rate mode : Variable

Frame rate : 59.940 fps

Minimum frame rate : 59.916 fps

Maximum frame rate : 60.157 fps

Color space : YUV

Chroma subsampling : 4:2:0

Bit depth : 8 bits

Scan type : Progressive

Compression mode : Lossy

Bits/(Pixel*Frame) : 0.062

Stream size : 2.17 GiB (95%)

Writing library : ZJMedia MPEG Encoder

Audio

ID : 2

Format : AAC

Format/Info : Advanced Audio Codec

Format profile : LC

Codec ID : 40

Duration : 2h 1mn

Bit rate mode : Variable

Bit rate : 128 Kbps

Channel(s) : 2 channels

Channel positions : Front: L R

Sampling rate : 48.0 KHz

Compression mode : Lossy

Stream size : 111 MiB (5%)

Language : English


More at ibit.to
And ibit.uno
And ibit.am
And ibit.ws

Comments

Files

[WWW.PIMP4003.NET] Kingsman The Secret Service 2015 720p HDTS x264 Pimp4003.mp4 2.3 GB

Stream

Downloading Seeding Kingsman The Secret Service 2015 720p HDTS x264 Pimp4003 from to 0 peers.
of
0 b/s / ↗0 b/s