• 1
  • 0
  • done
Sponsored Downloadondemand_video
  • King.of.the.Hill.S01.DVDRip.DD2.0.x264-BS666
  • 2.7 GB
  • Black_Scorpion_666
  • King Hill
  • Мультсериалы

Description

Царь Горы / King of The Hill


image

Страна : США

Жанр : анимация, комедия

Продолжительность : 00:21:50

Год выпуска : 2007

Перевод : многоголосый профессиональный

Русские субтитры : нет

Режиссёр : Майк Джадж, Грег Дэниелс / Mike Judge, Greg Daniels

Описание : «Царь горы» - один из популярных американских мультсериалов, завоевавший популярность во многих странах. Над ним работали Майк Джадж, автор знаменитого сериала про Бивиса и Баттхеда, и Грег Дэниэлс, принимавший участие в создании ранних сезонов «Симпсонов». В итоге «Царь горы» как раз представляет собой нечто среднее между этими двумя более нашумевшими мультфильмами. Юмор не столь груб и неполиткорректен, как в «Бивисе и Баттхеде», но и не так заразителен, как в «Симсонах». Однако сериал по-своему оригинален и привлекателен.

Список серий :
1 Pilot 1997-01-12
2 Square Peg 1997-01-19
3 The Order of the Straight Arrow 1997-02-02
4 Hank's Got the Willies 1997-02-09
5 Luanne's Saga 1997-02-16
6 Hank's Unmentionable Problem 1997-02-23
7 Westie Side Story 1997-03-02
8 Shins of the Father 1997-03-23
9 Peggy the Boggle Champ 1997-04-13
10 Keeping Up With Our Joneses 1997-04-27
11 King of the Ant Hill 1997-05-04
12 Plastic White Female 1997-05-11

Ссылка на предыдущие и альтернативные раздачи

Качество : DVDRip-AVC by NTb Семпл | Encode vs Source

Формат : MKV

Видео : AVC (x264) | от 704x480@704x528 до 718x480p@718x528 (4:3) | 23.976 fps | ~771-1650 Kbps | ~0.100 bits/pixel

Аудио : AC3 | 48KHz | 2.0 (2ch) | 192 kbps [RUS | MVO]

Аудио 2 : AC3 | 48KHz | 2.0 (2ch) | 192 kbps [ENG | Original]

Аудио 3 : AC3 | 48KHz | 2.0 (2ch) | 192 kbps [ENG | Comentary]

Субтитры : Английские

Подробные технические данные

`Общее
Уникальный идентификатор : 212952965691515759254027472433341580364 (0xA0353FD48EFBE475AF8896D3D308C44C)
Полное имя : H:King Of The HillKing.of.the.Hill.S01.DVDRip.DD2.0.x264-BS666King.of.the.Hill.S01E03.The.Order.of.the.Straight.Arrow.DVDRip.DD2.0.x264-BS666.mkv
Формат : Matroska
Версия формата : Version 4 / Version 2
Размер файла : 257 Мбайт
Продолжительность : 22 м.
Общий поток : 1608 Кбит/сек
Дата кодирования : UTC 2013-06-29 16:30:44
Программа кодирования : mkvmerge v6.3.0 ('You can't stop me!') built on Jun 28 2013 20:09:41
Библиотека кодирования : libebml v1.3.0 + libmatroska v1.4.0

Видео
Идентификатор : 1
Формат : AVC
Формат/Информация : Advanced Video Codec
Профиль формата : High@L3.1
Параметр CABAC формата : Да
Параметр ReFrames формата : 10 кадров
Идентификатор кодека : VMPEG4/ISO/AVC
Продолжительность : 22 м.
Битрейт : 1000 Кбит/сек
Ширина : 710 пикселей
Высота : 480 пикселей
Соотношение сторон : 4:3
Режим частоты кадров : Постоянный
Частота кадров : 23,976 кадра/сек
Цветовое пространство : YUV
Субдискретизация насыщенности : 4:2:0
Битовая глубина : 8 бит
Тип развёртки : Прогрессивная
Бит/(Пиксели*Кадры) : 0.122
Размер потока : 160 Мбайт (62%)
Библиотека кодирования : x264 core 130 r2273 b3065e6
Настройки программы : cabac=1 / ref=10 / deblock=1:1:1 / analyse=0x3:0x113 / me=umh / subme=8 / psy=1 / psy
rd=0.40:0.00 / mixedref=1 / merange=16 / chromame=1 / trellis=1 / 8x8dct=1 / cqm=0 / deadzone=21,11 / fastpskip=1 / chromaqpoffset=-2 / threads=6 / lookaheadthreads=1 / slicedthreads=0 / nr=0 / decimate=1 / interlaced=0 / bluraycompat=0 / constrainedintra=0 / bframes=5 / bpyramid=2 / badapt=2 / bbias=0 / direct=3 / weightb=1 / opengop=0 / weightp=2 / keyint=250 / keyintmin=23 / scenecut=40 / intrarefresh=0 / rclookahead=50 / rc=crf / mbtree=1 / crf=21.0 / qcomp=0.60 / qpmin=0 / qpmax=69 / qpstep=4 / ipratio=1.40 / aq=1:0.60
Язык : English
Default : Да
Forced : Нет

Аудио #1
Идентификатор : 2
Формат : AC-3
Формат/Информация : Audio Coding 3
Расширение режима : CM (complete main)
Параметр Endianness формата : Big
Идентификатор кодека : A_AC3
Продолжительность : 22 м.
Вид битрейта : Постоянный
Битрейт : 192 Кбит/сек
Каналы : 2 канала
Расположение каналов : Front: L R
Частота : 48,0 КГц
Битовая глубина : 16 бит
Метод сжатия : С потерями
Размер потока : 30,7 Мбайт (12%)
Язык : Russian
Default : Да
Forced : Нет

Аудио #2
Идентификатор : 3
Формат : AC-3
Формат/Информация : Audio Coding 3
Профиль формата : Dolby Digital
Расширение режима : CM (complete main)
Параметр Endianness формата : Big
Идентификатор кодека : A_AC3
Продолжительность : 22 м.
Вид битрейта : Постоянный
Битрейт : 192 Кбит/сек
Каналы : 2 канала
Расположение каналов : Front: L R
Частота : 48,0 КГц
Битовая глубина : 16 бит
Метод сжатия : С потерями
Размер потока : 30,7 Мбайт (12%)
Язык : English
Default : Нет
Forced : Нет

Аудио #3
Идентификатор : 4
Формат : AC-3
Формат/Информация : Audio Coding 3
Профиль формата : Dolby Digital
Расширение режима : CM (complete main)
Параметр Endianness формата : Big
Идентификатор кодека : A_AC3
Продолжительность : 22 м.
Вид битрейта : Постоянный
Битрейт : 192 Кбит/сек
Каналы : 2 канала
Расположение каналов : Front: L R
Частота : 48,0 КГц
Битовая глубина : 16 бит
Метод сжатия : С потерями
Размер потока : 30,7 Мбайт (12%)
Заголовок : Commentary
Язык : English
Default : Нет
Forced : Нет

Текст
Идентификатор : 5
Формат : UTF-8
Идентификатор кодека : S_TEXT/UTF8
Идентификатор кодека/Информация : UTF-8 Plain Text
Язык : English
Default : Нет
Forced : Нет

Меню
00:00:00.000 : en:Chapter 1
00:03:03.400 : en:Chapter 2
00:07:39.234 : en:Chapter 3
00:12:48.402 : en:Chapter 4
00:18:30.737 : en:Chapter 5
00:22:18.237 : en:Chapter 6 `

Скриншоты

image image image image image image image image image image image


More at ibit.to
And ibit.uno
And ibit.ws

Comments

6 years ago

звук новые записи с цифры или из старых раздач?

6 years ago

Оу! Ошибка описания! Это не Гоблина перевод! Здесь многоголосый профессиональный!

6 years ago

valikoceviz писал(а): 59932817Оу! Ошибка описания! Это не Гоблина перевод! Здесь многоголосый профессиональный! Okey... Мне знакомый дал аудио и сабы, не проверял поверил на слово...

6 years ago

Кстати да, был удивлён valikoceviz писал(а): 59932817Оу! Ошибка описания! Это не Гоблина перевод! Здесь многоголосый профессиональный!

5 years ago

BlackScorpion666 Спасибо большое, отличное качество! А остальные сезоны будут в таком же качестве?

5 years ago

TommyBrownДальше рипы NTb не делали, пока все...

5 years ago

BlackScorpion666 Наконец-то появилось время посмотреть этот замечательный мультсериал.Только почему в торренте только 11 серий? А где 12-я?

5 years ago

Кстати, да - а где 12- я серия, которая заявлена в описании?

5 years ago

12-ой серии нет!!! И вообще там 13 серий - The company man также отсутствует! Безобразие!!!

5 years ago

bars789 писал(а): 62356516Кстати, да - а где 12- я серия, которая заявлена в описании? Либо пропустил, либо её не было на DVD с которого рипали mike11223311 писал(а): 62391894И вообще там 13 серий - The company man также отсутствует Это же 9 серия 2 сезонаПочинят BTN гляну, если там нет 12, то их всего 11 было

3 years ago

Жизненный мультфильм! Многое, чему можно поучиться у него! Например, как стать хорошим отцом и семьянином, да и вообще человеком. Эх, был бы у меня такой отец, как Хэнк Хилл!..

3 years ago

На DVD вышли все сезоны (последний еще и на Blu-Ray). Сделал бы кто-нибудь нормальную раздачу со всеми сезонами, с хорошим видео и звуком. А то здесь аудио просто кошмар 1-8 сезон. Для себя качал с другого мульт-трекера, который загнулся недавно. King of The Hill 1-13

2 years ago

Коллеги, кто-то может подсказать, где взять английские сабы ко всем сезонам?

2 years ago

В раздаче нет 12 серии, хотя указана в описании и заголовке.

2 years ago

Капiтан Безштан писал(а): 72003674Коллеги, кто-то может подсказать, где взять английские сабы ко всем сезонам? В США попроси, "коллега"

1 year ago

Цитата: 704x480@704x528 А чё это значит?

Files

King.of.the.Hill.S01.DVDRip.DD2.0.x264-BS666 2.7 GB

Stream

Downloading Seeding King.of.the.Hill.S01.DVDRip.DD2.0.x264-BS666 from to 0 peers.
of
0 b/s / ↗0 b/s