• 0
  • 0
  • 11
  • done
Anonymous Downloadondemand_video
  • Keys.To.The.Heart.2017.1080p.HDRip.x264.AAC.HORiZON-ArtSubs
  • 2.4 GB
  • m1337e
  • Keys Heart 2017 1080p HDRip x264 HORiZON ArtSubs AAC
  • Korean
  • h.264/x264
Warning! Use a VPN When Downloading Torrents!
Your IP Address is ,
Your Internet Provider can see when you download torrents! Hide your IP ADDRESS with a VPN
We strongly recommend hide.me VPN to hide your torrenting. It's FREE!
DOWNLOAD VPN
80%

Keys to the Heart (2018)

  • Drama Comedy
  • An older brother is a washed-up boxer. His younger brother is a genius pianist with physical disability. The brothers make up through their mother who is full of stories of her past.

    expand_more
    Korean

    Description

    Release: Keys.To.The.Heart.2017.1080p.HDRip.x264.AAC.HORiZON-ArtSubs

    image

    IMDB: https://www.imdb.com/title/tt6985200

    **Subtitle: English

    Plot: A washed-up boxer, Jo-ha, has lived his life relying on nothing but his physical strength. His champion glory lasted only a moment, and now pride is all Jo-ha has. He runs into his mom who left him when he was little, and comes to live with her and Jin-tae, the younger brother who always seems awkward except for when he plays the piano. The autistic savant, Jin-tae, shows brilliance in playing the piano and video games, and cooking ramen. He is at first scared at his older brother, who insists on swinging his fists at people for what he wants. Reunited with each other, the two brothers learn what it is to be a family.**

    **Complete name : Keys.To.The.Heart.2017.1080p.HDRip.x264.AAC.HORiZON-ArtSubs.mkv

    Format : Matroska

    Format version : Version 4

    File size : 2.37 GiB

    Duration : 2 h 0 min

    Overall bit rate : 2 821 kb/s

    Encoded date : UTC 2018-11-26 00:28:53

    Writing application : mkvmerge v24.0.0 ('Beyond The Pale') 64-bit

    Writing library : libebml v1.3.6 + libmatroska v1.4.9

    Video

    ID : 1

    Format : AVC

    Format/Info : Advanced Video Codec

    Format profile : [email protected]
    Format settings : CABAC / 4 Ref Frames

    Format settings, CABAC : Yes

    Format settings, ReFrames : 4 frames

    Codec ID : V_MPEG4/ISO/AVC

    Duration : 2 h 0 min

    Bit rate : 2 500 kb/s

    Width : 1 920 pixels

    Height : 800 pixels

    Display aspect ratio : 2.40:1

    Frame rate mode : Constant

    Frame rate : 23.976 (24000/1001) FPS

    Color space : YUV

    Chroma subsampling : 4:2:0

    Bit depth : 8 bits

    Scan type : Progressive

    Bits/(Pixel*Frame) : 0.068

    Stream size : 2.10 GiB (89%)

    Writing library : x264 core 155 r2901 7d0ff22

    Encoding settings : cabac=1 / ref=3 / deblock=1:-2:-2 / analyse=0x3:0x113 / me=hex / subme=7 / psy=1 / psyrd=1.00:0.25 / mixedref=1 / merange=16 / chromame=1 / trellis=1 / 8x8dct=1 / cqm=0 / deadzone=6,6 / fastpskip=1 / chromaqpoffset=-4 / threads=3 / lookaheadthreads=1 / slicedthreads=0 / nr=0 / decimate=0 / interlaced=0 / bluraycompat=0 / constrainedintra=0 / bframes=3 / bpyramid=2 / badapt=1 / bbias=0 / direct=1 / weightb=1 / opengop=0 / weightp=2 / keyint=240 / keyintmin=24 / scenecut=40 / intrarefresh=0 / rclookahead=40 / rc=2pass / mbtree=1 / bitrate=2500 / ratetol=1.0 / qcomp=0.80 / qpmin=0 / qpmax=69 / qpstep=4 / cplxblur=20.0 / qblur=0.5 / vbvmaxrate=62500 / vbvbufsize=78125 / nalhrd=none / filler=0 / ipratio=1.10 / aq=1:0.50

    Default : Yes

    Forced : No

    Color range : Limited

    Color primaries : BT.709

    Transfer characteristics : BT.709

    Matrix coefficients : BT.709

    Audio

    ID : 2

    Format : AAC LC

    Format/Info : Advanced Audio Codec Low Complexity

    Codec ID : A_AAC-2

    Duration : 2 h 0 min

    Bit rate : 320 kb/s

    Channel(s) : 2 channels

    Channel layout : L R

    Sampling rate : 48.0 kHz

    Frame rate : 46.875 FPS (1024 SPF)

    Compression mode : Lossy

    Delay relative to video : 9 ms

    Stream size : 276 MiB (11%)

    Title : Stereo

    Language : Korean

    Default : Yes

    Forced : No

    Text

    ID : 3

    Format : UTF-8

    Codec ID : S_TEXT/UTF8

    Codec ID/Info : UTF-8 Plain Text

    Duration : 1 h 55 min

    Bit rate : 37 b/s

    Count of elements : 1372

    Stream size : 31.9 KiB (0%)

    Language : English

    Default : Yes

    Forced : No**

    SCREENSHOTS:

    image
    image
    image
    image


    More at ibit.to
    And ibit.uno
    And ibit.am
    And ibit.ws

    Reviews

    Comments

    Files

    Keys.To.The.Heart.2017.1080p.HDRip.x264.AAC.HORiZON-ArtSubs.mkv 2.4 GB
    Keys.To.The.Heart.2017.1080p.HDRip.x264.AAC.HORiZONArtSubs.mkv 2.4 GB

    Stream

    Downloading Seeding Keys.To.The.Heart.2017.1080p.HDRip.x264.AAC.HORiZON-ArtSubs from to 0 peers.
    of
    0 b/s / ↗0 b/s