• 30
  • 61
  • done
Sponsored Downloadondemand_video
  • Kesari 2019 Hindi 720p WEB-DL x264 ESub [MW]
  • 1.2 GB
  • moviefreak
  • Kesari 2019 Hindi 720p WEB x264 ESub
  • Hindi
  • HD 720p
78%

Kesari (2019)

  • Action Drama History
  • The story of Havildar Ishar Singh who participates in the Battle of Saragarhi (in which an army of 21 Sikhs fought against 10,000 Afghans in 1897) while yearning for the respect of his estranged daughter.

    Hindi
  • $16,998,000
  • Description

    image

    **General

    Format                                   : Matroska

    Format version                           : Version 4

    File size                                : 1.20 GiB

    Duration                                 : 2 h 33 min

    Overall bit rate                         : 1 123 kb/s

    Video

    ID                                       : 1

    Format                                   : AVC

    Format/Info                              : Advanced Video Codec

    Format profile                           : [email protected]

    Format settings                          : CABAC / 4 Ref Frames

    Format settings, CABAC                   : Yes

    Format settings, Reference frames        : 4 frames

    Codec ID                                 : V_MPEG4/ISO/AVC

    Duration                                 : 2 h 33 min

    Bit rate                                 : 1 000 kb/s

    Width                                    : 1 280 pixels

    Height                                   : 552 pixels

    Display aspect ratio                     : 2.35:1

    Frame rate mode                          : Constant

    Frame rate                               : 24.000 FPS

    Color space                              : YUV

    Chroma subsampling                       : 4:2:0

    Bit depth                                : 8 bits

    Scan type                                : Progressive

    Bits/(Pixel*Frame)                       : 0.059

    Stream size                              : 1.06 GiB (88%)

    Writing library                          : x264 core 157 r2935 545de2f

    Audio

    ID                                       : 2

    Format                                   : AAC LC

    Codec ID                                 : A_AAC-2

    Duration                                 : 2 h 33 min

    Bit rate                                 : 128 kb/s

    Channel(s)                               : 2 channels

    Channel layout                           : L R

    Sampling rate                            : 48.0 kHz

    Frame rate                               : 46.875 FPS (1024 SPF)

    Compression mode                         : Lossy

    Stream size                              : 141 MiB (11%)

    Language                                 : Hindi

    Default                                  : Yes

    Forced                                   : No

    Text

    ID                                       : 3

    Format                                   : UTF-8

    Codec ID                                 : S_TEXT/UTF8

    Codec ID/Info                            : UTF-8 Plain Text

    Duration                                 : 2 h 26 min

    Bit rate                                 : 33 b/s

    Count of elements                        : 1229

    Stream size                              : 35.9 KiB (0%)

    Default                                  : Yes

    Forced                                   : No**

    Click To View Image

    https://pichub.site/image/yGERY

    https://pichub.site/image/yGS1B

    https://pichub.site/image/yGdB6

    https://pichub.site/image/yG7Pt

    https://pichub.site/image/yGcJ4

    https://pichub.site/image/yGkhp


    More at ibit.to
    And ibit.uno
    And ibit.ws

    Reviews

    Comments

    Files

    Kesari 2019 Hindi 720p WEB-DL x264 ESub [MW].mkv 1.2 GB

    Stream

    Downloading Seeding Kesari 2019 Hindi 720p WEB-DL x264 ESub [MW] from to 0 peers.
    of
    0 b/s / ↗0 b/s