• 1
  • 0
Sponsored Downloadondemand_video

Description

ENCODED WITH HEVC/X265

.: Title :.

Jurassic Park: The Lost World

Jurassic Park: Il Mondo Perduto

.: Original Release :.

http://forum.tntvillage.scambioetico.org/index.php?showtopic=393038

.: Mediainfo :.

General

Unique ID : 179265190780727367353255892376426235208 (0x86DD384AC84D6EE492E7E2F344E1C548)

Complete name : I:SourcesJurassic Park X265Jurassic.Park.The.Lost.World.ITA.ENG.AC3.BDRip.1080p.X265_ZMachine.mkv

Format : Matroska

Format version : Version 4 / Version 2

File size : 3.02 GiB

Duration : 2h 8mn

Overall bit rate : 3 358 Kbps

Movie name : Jurassic Park: The Lost World - ZMachine

Encoded date : UTC 2014-04-01 15:39:02

Writing application : mkvmerge v6.8.0 ('Theme for Great Cities') 64bit built on Mar 2 2014 21:34:26

Writing library : libebml v1.3.0 + libmatroska v1.4.1

Video

ID : 1

Format : HEVC

Format/Info : High Efficiency Video Coding

Codec ID : V_MPEGH/ISO/HEVC

Duration : 2h 8mn

Bit rate : 2 395 Kbps

Width : 1 920 pixels

Height : 1 040 pixels

Display aspect ratio : 1.85:1

Frame rate mode : Constant

Frame rate : 23.976 fps

Bits/(Pixel*Frame) : 0.050

Stream size : 2.15 GiB (71%)

Title : Video H.265 (Encoded By ZMachine)

Default : Yes

Forced : Yes

Audio #1

ID : 2

Format : AC-3

Format/Info : Audio Coding 3

Mode extension : CM (complete main)

Format settings, Endianness : Big

Codec ID : A_AC3

Duration : 2h 8mn

Bit rate mode : Constant

Bit rate : 448 Kbps

Channel(s) : 6 channels

Channel positions : Front: L C R, Side: L R, LFE

Sampling rate : 48.0 KHz

Bit depth : 16 bits

Compression mode : Lossy

Stream size : 413 MiB (13%)

Title : Audio AC3

Language : Italian

Default : Yes

Forced : No

Audio #2

ID : 3

Format : AC-3

Format/Info : Audio Coding 3

Mode extension : CM (complete main)

Format settings, Endianness : Big

Codec ID : A_AC3

Duration : 2h 8mn

Bit rate mode : Constant

Bit rate : 448 Kbps

Channel(s) : 6 channels

Channel positions : Front: L C R, Side: L R, LFE

Sampling rate : 48.0 KHz

Bit depth : 16 bits

Compression mode : Lossy

Stream size : 413 MiB (13%)

Title : Audio AC3

Language : English

Default : No

Forced : No

Text #1

ID : 4

Format : ASS

Codec ID : S_TEXT/ASS

Codec ID/Info : Advanced Sub Station Alpha

Compression mode : Lossless

Title : Sub Forced

Language : Italian

Default : Yes

Forced : Yes

Text #2

ID : 5

Format : ASS

Codec ID : S_TEXT/ASS

Codec ID/Info : Advanced Sub Station Alpha

Compression mode : Lossless

Title : Sub

Language : Italian

Default : No

Forced : No

Text #3

ID : 6

Format : ASS

Codec ID : S_TEXT/ASS

Codec ID/Info : Advanced Sub Station Alpha

Compression mode : Lossless

Title : Sub

Language : English

Default : No

Forced : No

Menu

00:00:00.000 : Isla Sorna (Main Titles)

00:04:13.587 : The Dinosaur Guy

00:08:38.309 : Our Last Chance

00:16:11.929 : The Doctor's Daughter

00:21:43.135 : The Lost World

00:33:22.459 : Peter's Little Camping Trip

00:41:48.798 : The Backup Plan

00:47:58.000 : The Baby Rex

00:53:40.592 : Mommy's Very Angry

01:04:46.674 : Eddie Meets the Folks

01:12:59.709 : Death & Dieter Stark

01:20:47.885 : The T-Rex Intrudes

01:26:18.965 : Lurkers in the Long Grass

01:31:53.383 : The Welcoming Committee

01:42:23.637 : The Death Ship

01:50:52.688 : Taking the Kid

01:52:13.936 : Rampage

01:58:10.875 : The Crucial Shot

01:59:51.601 : Life Will Find a Way

02:01:56.434 : End Titles


More at ibit.to
And ibit.uno
And ibit.ws

Comments

Files

Jurassic.Park.The.Lost.World.ITA.ENG.AC3.BDRip.1080p.X265_ZMachine.mkv 3.0 GB

Stream

Downloading Seeding Jurassic Park The Lost World ITA ENG AC3 BDRip 1080p X265 ZMachine from to 0 peers.
of
0 b/s / ↗0 b/s