• 0
  • 0
  • done
Anonymous Download
  • Joy Unlimited - Reflections
  • 402 MB
  • alex752
  • Joy Unlimited Reflections
  • Зарубежный Rock
Warning! Use a VPN When Downloading Torrents!
Your IP Address is ,
Your Internet Provider can see when you download torrents! Hide your IP ADDRESS with a VPN
We strongly recommend Trust.Zone VPN to hide your torrenting. It's FREE!
DOWNLOAD VPN

Description

Joy Unlimited - Reflections

image

Жанр : Progressive rock

Год выпуска диска : 2007

Производитель диска : Германия (Garden of Delights CD 132)

Аудио кодек : FLAC

Тип рипа : image + .cue

Битрейт аудио : lossless

Продолжительность : 74:25

Трэклист :

  1. Reincarnation (04:32)
    1. Oceans Of Ruins (05:01)
    2. King Richard's Court Jester (02:30)
    3. Colossus Of Steel And Iron (02:27)
    4. Crystal Palace (04:07)
    5. Motion Is Movement/Hate Nine And Ten (05:40)
    6. The Search For Father Time (06:40)
    7. Silenty Sung (04:00)
    8. Question (04:29)
      Bonus tracks:
    9. Believe Me (05:27)
    10. Peters Zeitmaschine (02:53)
    11. Navigationen (02:08)
    12. Mosaik (03:41)
    13. Francesco's Horse (04:26)
    14. Sister Christine (03:50)
    15. One Small Step (03:41)
    16. Highway Affair (02:42)
    17. Early Morning Moanin (03:16)
    18. Proud Angelina (02:55)

Доп. информация :

Информация о группе

Состав:

Ken Traylor - Vocal, E-guitar, Acoustic-guitar
Roland Heck - Organ, Piano,E-piano
Dieter Kindl - Acoustic-guitar, E-guitar, Bass
Gerd Köthe - Tenor & Soprano Sax, Flute, E-flute, Woodwinds
Albin Metz - Bass, Percussion
Hans W. Herkenne - Drums, Percussion

Отчёт EAC

Exact Audio Copy V0.99 prebeta 3 from 28. July 2007

EAC extraction logfile from 28. December 2007, 11:44

Joy Unlimited / Reflections

Used drive : LITE-ON DVDRW LH-20A1P Adapter: 0 ID: 2

Read mode : Secure
Utilize accurate stream : Yes
Defeat audio cache : Yes
Make use of C2 pointers : No

Read offset correction : 6
Overread into Lead-In and Lead-Out : No
Fill up missing offset samples with silence : Yes
Delete leading and trailing silent blocks : No
Null samples used in CRC calculations : Yes
Used interface : Installed external ASPI interface

Used output format : Internal WAV Routines
Sample format : 44.100 Hz; 16 Bit; Stereo

TOC of the extracted CD

Track | Start | Length | Start sector | End sector


1 | 0:00.00 | 4:32.15 | 0 | 20414
2 | 4:32.15 | 5:01.47 | 20415 | 43036
3 | 9:33.62 | 2:30.65 | 43037 | 54351
4 | 12:04.52 | 2:27.65 | 54352 | 65441
5 | 14:32.42 | 4:07.15 | 65442 | 83981
6 | 18:39.57 | 5:40.18 | 83982 | 109499
7 | 24:20.00 | 6:40.60 | 109500 | 139559
8 | 31:00.60 | 4:00.05 | 139560 | 157564
9 | 35:00.65 | 4:29.00 | 157565 | 177739
10 | 39:29.65 | 5:27.45 | 177740 | 202309
11 | 44:57.35 | 2:53.67 | 202310 | 215351
12 | 47:51.27 | 2:08.70 | 215352 | 225021
13 | 50:00.22 | 3:41.18 | 225022 | 241614
14 | 53:41.40 | 4:26.72 | 241615 | 261636
15 | 58:08.37 | 3:50.30 | 261637 | 278916
16 | 61:58.67 | 3:41.55 | 278917 | 295546
17 | 65:40.47 | 2:42.63 | 295547 | 307759
18 | 68:23.35 | 3:16.67 | 307760 | 322526
19 | 71:40.27 | 2:55.28 | 322527 | 335679

Range status and errors

Selected range

Filename D:flogger77Joy Unlimited - Reflections.wav

Peak level 100.0 %
Range quality 100.0 %
Copy CRC EE1FE31F
Copy OK

No errors occurred

AccurateRip summary

Track 1 not present in database
Track 2 not present in database
Track 3 not present in database
Track 4 not present in database
Track 5 not present in database
Track 6 not present in database
Track 7 not present in database
Track 8 not present in database
Track 9 not present in database
Track 10 not present in database
Track 11 not present in database
Track 12 not present in database
Track 13 not present in database
Track 14 not present in database
Track 15 not present in database
Track 16 not present in database
Track 17 not present in database
Track 18 not present in database
Track 19 not present in database

None of the tracks are present in the AccurateRip database

End of status report

Источник: ослосеть. image


More at ibit.to
And ibit.uno
And ibit.ws

Comments

10 years ago

alex752 встаньте пожалуйста на раздачю Joy Unlimited - Reflections и Joy Unlimited-Joy Unlimited заранее спасибо

2 years ago

Только сейчас послушал толком. Без девчонки они явно усложнились. №6 вообще как кусок из "Godbluff" VDGG. Очень круто.

Files

Joy Unlimited - Reflections.flac 370 MB
scans/Joy Unlimited - Reflections - Outside.jpg 3.2 MB
scans/Joy Unlimited - Reflections - Booklet 10.jpg 2.1 MB
scans/Joy Unlimited - Reflections - Booklet 1.jpg 2.0 MB
scans/Joy Unlimited - Reflections - Booklet 2.jpg 1.9 MB
scans/Joy Unlimited - Reflections - Booklet 3.jpg 1.8 MB
scans/Joy Unlimited - Reflections - Booklet 5.jpg 1.8 MB
scans/Joy Unlimited - Reflections - Booklet 4.jpg 1.8 MB
scans/Joy Unlimited - Reflections - Booklet 6.jpg 1.8 MB
scans/Joy Unlimited - Reflections - Booklet 11.jpg 1.8 MB
scans/Joy Unlimited - Reflections - Back.jpg 1.8 MB
scans/Joy Unlimited - Reflections - Booklet 13.jpg 1.7 MB
scans/Joy Unlimited - Reflections - Booklet 9.jpg 1.7 MB
scans/Joy Unlimited - Reflections - Booklet 15.jpg 1.6 MB
scans/Joy Unlimited - Reflections - Booklet 12.jpg 1.5 MB
scans/Joy Unlimited - Reflections - Booklet 8.jpg 1.4 MB
scans/Joy Unlimited - Reflections - Booklet 7.jpg 1.1 MB
scans/Joy Unlimited - Reflections - Booklet 14.jpg 1.1 MB
scans/Joy Unlimited - Reflections - CD.jpg 1.0 MB
scans/Joy Unlimited - Reflections - Front.jpg 631 kB
Joy Unlimited - Reflections.log 3.0 kB
Joy Unlimited - Reflections.cue 2.6 kB

Stream

Downloading Seeding Joy Unlimited - Reflections from to 0 peers.
of
0 b/s / ↗0 b/s