• 4
  • 1
  • done
ondemand_video
  • Jack Reacher 2-Movie Collection (2012-2016) ~ TombDoc
  • 8.6 GB
  • freeexchange
  • Jack Reacher Movie Collection 2012 2016 TombDoc
  • English
  • Dubs/Dual Audio

Description

image

_

The law has limits. He does not...

_

image

_

Jack Reacher 2-Movie Collection (2012-2016) 1080p 10bit Bluray x265 HEVC [Org DD 5.1 Hindi + DD 5.1 English] MSubs ~ TombDoc

_

image

_

Jack Reacher (2012) 1080p 10bit Bluray x265 HEVC [Org DD 5.1 Hindi + DD 5.1 English] MSubs ~ TombDoc

_

Code:

Format : Matroska

Format version : Version 4

File size : 4.58 GiB

Duration : 2 h 10 min

Overall bit rate : 5 028 kb/s

Writing frontend : TombDoc

Video

ID : 1

Format : HEVC

Format/Info : High Efficiency Video Coding

Format profile : Main [email protected]@Main

Codec ID : V_MPEGH/ISO/HEVC

Duration : 2 h 10 min

Bit rate : 3 985 kb/s

Width : 1 920 pixels

Height : 816 pixels

Display aspect ratio : 2.35:1

Frame rate mode : Constant

Frame rate : 23.976 (24000/1001) FPS

Color space : YUV

Chroma subsampling : 4:2:0

Bit depth : 10 bits

Bits/(Pixel*Frame) : 0.106

Stream size : 3.63 GiB (79%)

Writing library : x265 3.0_Au+24-4217e691387c:[Windows][GCC 9.1.1][64 bit] 10bit

Encoding settings : rc=abr / bitrate=4000 / qcomp=0.60 / qpstep=4 / stats-write=0 / stats-read=2 / cplxblur=20.0 / qblur=0.5 / qpmax=69 / qpmin=0 / no-lossless / no-cu-lossless / hevc-aq / aq-motion / aq-mode=3 / aq-strength=1.00 / cbqpoffs=0 / crqpoffs=0 / ipratio=1.40 / pbratio=1.30 / psy-rd=0.00 / psy-rdoq=1.00 / deblock=0:0 / ref=5 / limit-refs=3 / limit-modes / bframes=8 / b-adapt=2 / bframe-bias=0 / b-pyramid / no-b-intra / weightp / no-weightb / keyint=250 / min-keyint=23 / rc-lookahead=60 / gop-lookahead=0 / scenecut=40 / scenecut-bias=0.05 / ctu=64 / min-cu-size=8 / me=3 / subme=5 / merange=57 / rd=4 / no-rd-refine / ssim-rd / dynamic-rd=0.00 / rdoq-level=2 / rdpenalty=0 / cutree / sao / no-limit-sao / no-sao-non-deblock / rect / amp / open-gop / max-tu-size=32 / tu-inter-depth=1 / tu-intra-depth=1 / limit-tu=0 / qg-size=32 / wpp / no-pmode / no-pme / no-psnr / no-ssim / no-tskip / no-constrained-intra / strong-intra-smoothing / max-merge=4 / nr-intra=0 / nr-inter=0 / input-csp=1 / input-res=1920x816 / interlace=0 / total-frames=187598 / level-idc=0 / high-tier=1cpuid=1049583 / frame-threads=5 / numa-pools=16,16 / log-level=2 / uhd-bd=0 / lookahead-slices=4 / radl=0 / no-splice / no-intra-refresh / signhide / temporal-mvp / no-analyze-src-pics / no-early-skip / rskip / no-fast-intra / no-tskip-fast / no-splitrd-skip / zone-count=0 / no-strict-cbr / no-rc-grain / no-const-vbv / no-allow-non-conformance / no-repeat-headers / annexb / no-aud / no-hrd / info / hash=0 / no-temporal-layers / sar=0 / overscan=0 / videoformat=5 / range=0 / colorprim=2 / transfer=2 / colormatrix=2 / chromaloc=0 / display-window=0 / max-cll=0,0 / min-luma=0 / max-luma=1023 / log2-max-poc-lsb=8 / vui-timing-info / vui-hrd-info / slices=1 / no-opt-qp-pps / no-opt-ref-list-length-pps / no-multi-pass-opt-rps / no-opt-cu-delta-qp / no-hdr / no-hdr-opt / no-dhdr10-opt / no-idr-recovery-sei / analysis-reuse-level=5 / scale-factor=0 / refine-intra=0 / refine-inter=0 / refine-mv=0 / refine-ctu-distortion=0 / ctu-info=0 / no-lowpass-dct / refine-analysis-type=0 / copy-pic=1 / max-ausize-factor=1.0 / no-dynamic-refine / no-single-sei / no-svt / qp-adaptation-range=1.00

Default : Yes

Forced : No

Audio #1

ID : 2

Format : E-AC-3

Format/Info : Enhanced AC-3

Commercial name : Dolby Digital Plus

Codec ID : A_EAC3

Duration : 2 h 10 min

Bit rate mode : Constant

Bit rate : 640 kb/s

Channel(s) : 6 channels

Channel layout : L R C LFE Ls Rs

Sampling rate : 48.0 kHz

Frame rate : 31.250 FPS (1536 SPF)

Compression mode : Lossy

Delay relative to video : 36 ms

Stream size : 597 MiB (13%)

Title : Org Amz DD+ 5.1 640Kbps ~ TombDoc

Language : Hindi

Service kind : Complete Main

Default : Yes

Forced : Yes

Audio #2

ID : 3

Format : AC-3

Format/Info : Audio Coding 3

Commercial name : Dolby Digital

Codec ID : A_AC3

Duration : 2 h 10 min

Bit rate mode : Constant

Bit rate : 384 kb/s

Channel(s) : 6 channels

Channel layout : L R C LFE Ls Rs

Sampling rate : 48.0 kHz

Frame rate : 31.250 FPS (1536 SPF)

Bit depth : 16 bits

Compression mode : Lossy

Stream size : 358 MiB (8%)

Title : DD 5.1 English

Language : English

Service kind : Complete Main

Default : No

Forced : No

Text #1

ID : 4

Format : PGS

Muxing mode : zlib

Codec ID : S_HDMV/PGS

Codec ID/Info : Picture based subtitle format used on BDs/HD-DVDs

Duration : 2 h 7 min

Bit rate : 22.6 kb/s

Count of elements : 2922

Stream size : 20.6 MiB (0%)

Title : Hindi BD-PGS

Language : Hindi

Default : Yes

Forced : Yes

Text #2

ID : 5

Format : PGS

Muxing mode : zlib

Codec ID : S_HDMV/PGS

Codec ID/Info : Picture based subtitle format used on BDs/HD-DVDs

Duration : 1 h 59 min

Bit rate : 34.7 kb/s

Count of elements : 2862

Stream size : 29.8 MiB (1%)

Title : Eng BD-PGS

Language : English

Default : No

Forced : No

Menu

00:00:00.000 : en:Chapter 01

00:08:21.668 : en:Chapter 02

00:14:19.901 : en:Chapter 03

00:21:51.685 : en:Chapter 04

00:30:02.342 : en:Chapter 05

00:35:46.478 : en:Chapter 06

00:41:22.980 : en:Chapter 07

00:49:08.112 : en:Chapter 08

00:55:36.291 : en:Chapter 09

01:01:44.117 : en:Chapter 10

01:08:11.296 : en:Chapter 11

01:16:56.320 : en:Chapter 12

01:23:51.526 : en:Chapter 13

01:30:20.165 : en:Chapter 14

01:38:01.584 : en:Chapter 15

01:45:08.928 : en:Chapter 16

01:53:39.312 : en:Chapter 17

02:01:50.470 : en:Chapter 18

imageimageimageimageimageimageimageimage

image

_

Jack Reacher: Never Go Back (2016) 1080p 10bit Bluray x265 HEVC [Org DD 5.1 Hindi + DD 5.1 English] MSubs ~ TombDoc

_

Code:

Format : Matroska

Format version : Version 4

File size : 4.00 GiB

Duration : 1 h 58 min

Overall bit rate : 4 846 kb/s

Writing frontend : TombDoc

Video

ID : 1

Format : HEVC

Format/Info : High Efficiency Video Coding

Format profile : Main [email protected]@Main

Codec ID : V_MPEGH/ISO/HEVC

Duration : 1 h 58 min

Bit rate : 3 994 kb/s

Width : 1 920 pixels

Height : 804 pixels

Display aspect ratio : 2.40:1

Frame rate mode : Constant

Frame rate : 23.976 (24000/1001) FPS

Color space : YUV

Chroma subsampling : 4:2:0

Bit depth : 10 bits

Bits/(Pixel*Frame) : 0.108

Stream size : 3.30 GiB (82%)

Writing library : x265 3.0_Au+24-4217e691387c:[Windows][GCC 9.1.1][64 bit] 10bit

Encoding settings : rc=abr / bitrate=4000 / qcomp=0.60 / qpstep=4 / stats-write=0 / stats-read=2 / cplxblur=20.0 / qblur=0.5 / qpmax=69 / qpmin=0 / no-lossless / no-cu-lossless / hevc-aq / aq-motion / aq-mode=3 / aq-strength=1.00 / cbqpoffs=0 / crqpoffs=0 / ipratio=1.40 / pbratio=1.30 / psy-rd=0.00 / psy-rdoq=1.00 / deblock=0:0 / ref=5 / limit-refs=3 / limit-modes / bframes=8 / b-adapt=2 / bframe-bias=0 / b-pyramid / no-b-intra / weightp / no-weightb / keyint=250 / min-keyint=23 / rc-lookahead=60 / gop-lookahead=0 / scenecut=40 / scenecut-bias=0.05 / ctu=64 / min-cu-size=8 / me=3 / subme=5 / merange=57 / rd=4 / no-rd-refine / ssim-rd / dynamic-rd=0.00 / rdoq-level=2 / rdpenalty=0 / cutree / sao / no-limit-sao / no-sao-non-deblock / rect / amp / open-gop / max-tu-size=32 / tu-inter-depth=1 / tu-intra-depth=1 / limit-tu=0 / qg-size=32 / wpp / no-pmode / no-pme / no-psnr / no-ssim / no-tskip / no-constrained-intra / strong-intra-smoothing / max-merge=4 / nr-intra=0 / nr-inter=0 / input-csp=1 / input-res=1920x804 / interlace=0 / total-frames=169965 / level-idc=0 / high-tier=1cpuid=1049583 / frame-threads=5 / numa-pools=16,16 / log-level=2 / uhd-bd=0 / lookahead-slices=4 / radl=0 / no-splice / no-intra-refresh / signhide / temporal-mvp / no-analyze-src-pics / no-early-skip / rskip / no-fast-intra / no-tskip-fast / no-splitrd-skip / zone-count=0 / no-strict-cbr / no-rc-grain / no-const-vbv / no-allow-non-conformance / no-repeat-headers / annexb / no-aud / no-hrd / info / hash=0 / no-temporal-layers / sar=0 / overscan=0 / videoformat=5 / range=0 / colorprim=2 / transfer=2 / colormatrix=2 / chromaloc=0 / display-window=0 / max-cll=0,0 / min-luma=0 / max-luma=1023 / log2-max-poc-lsb=8 / vui-timing-info / vui-hrd-info / slices=1 / no-opt-qp-pps / no-opt-ref-list-length-pps / no-multi-pass-opt-rps / no-opt-cu-delta-qp / no-hdr / no-hdr-opt / no-dhdr10-opt / no-idr-recovery-sei / analysis-reuse-level=5 / scale-factor=0 / refine-intra=0 / refine-inter=0 / refine-mv=0 / refine-ctu-distortion=0 / ctu-info=0 / no-lowpass-dct / refine-analysis-type=0 / copy-pic=1 / max-ausize-factor=1.0 / no-dynamic-refine / no-single-sei / no-svt / qp-adaptation-range=1.00

Default : Yes

Forced : No

Audio #1

ID : 2

Format : AC-3

Format/Info : Audio Coding 3

Commercial name : Dolby Digital

Codec ID : A_AC3

Duration : 1 h 58 min

Bit rate mode : Constant

Bit rate : 448 kb/s

Channel(s) : 6 channels

Channel layout : L R C LFE Ls Rs

Sampling rate : 48.0 kHz

Frame rate : 31.250 FPS (1536 SPF)

Bit depth : 16 bits

Compression mode : Lossy

Stream size : 379 MiB (9%)

Title : Org DvD DD 5.1 448Kbps ~ TombDoc

Language : Hindi

Service kind : Complete Main

Default : Yes

Forced : Yes

Audio #2

ID : 3

Format : AC-3

Format/Info : Audio Coding 3

Commercial name : Dolby Digital

Codec ID : A_AC3

Duration : 1 h 58 min

Bit rate mode : Constant

Bit rate : 384 kb/s

Channel(s) : 6 channels

Channel layout : L R C LFE Ls Rs

Sampling rate : 48.0 kHz

Frame rate : 31.250 FPS (1536 SPF)

Bit depth : 16 bits

Compression mode : Lossy

Stream size : 325 MiB (8%)

Title : DD 5.1 English

Language : English

Service kind : Complete Main

Default : No

Forced : No

Text #1

ID : 4

Format : PGS

Muxing mode : zlib

Codec ID : S_HDMV/PGS

Codec ID/Info : Picture based subtitle format used on BDs/HD-DVDs

Duration : 1 h 57 min

Bit rate : 25.5 kb/s

Count of elements : 2858

Stream size : 21.4 MiB (1%)

Title : Hindi BD-PGS

Language : Hindi

Default : Yes

Forced : Yes

Text #2

ID : 5

Format : PGS

Muxing mode : zlib

Codec ID : S_HDMV/PGS

Codec ID/Info : Picture based subtitle format used on BDs/HD-DVDs

Duration : 1 h 51 min

Bit rate : 32.0 kb/s

Count of elements : 2824

Stream size : 25.6 MiB (1%)

Title : Eng BD-PGS

Language : English

Default : No

Forced : No

Menu

00:00:00.000 : en:Chapter 01

00:07:00.629 : en:Chapter 02

00:15:19.877 : en:Chapter 03

00:20:33.858 : en:Chapter 04

00:29:04.576 : en:Chapter 05

00:34:35.740 : en:Chapter 06

00:42:40.141 : en:Chapter 07

00:49:28.007 : en:Chapter 08

00:58:44.563 : en:Chapter 09

01:03:10.161 : en:Chapter 10

01:09:35.755 : en:Chapter 11

01:15:05.334 : en:Chapter 12

01:21:59.665 : en:Chapter 13

01:27:07.222 : en:Chapter 14

01:34:14.065 : en:Chapter 15

01:46:44.857 : en:Chapter 16

01:53:30.846 : en:Chapter 17

imageimageimageimageimageimageimageimage

Code:

Source:

-Jack Reacher 2012 1080p CEE Blu-ray AVC DTS-HD MA 7.1-HDCLUB

-Jack Reacher Never Go Back 2016 Blu-ray 1080p CEE Blu-ray AVC TrueHD 7.1-HDCLUB

EnjOyY

image

image


More at ibit.to
And ibit.uno
And ibit.am
And ibit.ws

Comments

Files

J.R.2-M.C.jpg 118 kB
Jack Reacher (2012) 1080p 10bit Bluray x265 HEVC [Org DD 5.1 Hindi + DD 5.1 English] MSubs ~ TombDoc.mkv 4.6 GB
Jack Reacher - Never Go Back (2016) 1080p 10bit Bluray x265 HEVC [Org DD 5.1 Hindi + DD 5.1 English] MSubs ~ TombDoc.mkv 4.0 GB

Stream

Downloading Seeding Jack Reacher 2-Movie Collection (2012-2016) ~ TombDoc from to 0 peers.
of
0 b/s / ↗0 b/s