• 0
  • 0
  • 4
Anonymous Downloadondemand_video
  • Ip.Man.3.2015.CHINESE.BRRip.XviD.AC3-RARBG
  • 1.5 GB
  • 2015 CHINESE BRRip XviD RARBG
  • XVID
Warning! Use a VPN When Downloading Torrents!
Your IP Address is ,
Your Internet Provider can see when you download torrents! Hide your IP ADDRESS with a VPN
We strongly recommend hide.me VPN to hide your torrenting. It's FREE!
DOWNLOAD VPN
67%

Ip Man 3 (2015)

  • Action Drama History
  • When a band of brutal gangsters led by a crooked property developer make a play to take over the city, Master Ip is forced to take a stand.

    expand_more
  • $36,000,000
  • Description

    The year is 1959| where Ip Man lives in Hong Kong with his wife and his younger son. Trouble arises when a corrupt property developer and his thugs terrorize theschool where Ip Man's son goes to. Ip Man and his disciples have to help the police guard the school day and night. On the other hand| Ip Man has to deal with hiswife's terminal sickness| and at the same time faces a challenge from another Wing Chun fighter who ambitiously seeks to claim the Wing Chun Grandmaster title.

    http://imdb.com/title/tt2888046/

    image

    image

    image

    image

    image

    image

    MediaInfo:

    Video

    ID                                       : 0

    Format                                   : MPEG-4 Visual

    Format profile                           : [email protected]

    Format settings, BVOP                    : No

    Format settings, QPel                    : No

    Format settings, GMC                     : No warppoints

    Format settings, Matrix                  : Default (H.263)

    Codec ID                                 : XVID

    Codec ID/Hint                            : XviD

    Duration                                 : 1h 44mn

    Bit rate                                 : 1 599 Kbps

    Width                                    : 720 pixels

    Height                                   : 304 pixels

    Display aspect ratio                     : 2.35:1

    Frame rate                               : 24.000 fps

    Color space                              : YUV

    Chroma subsampling                       : 4:2:0

    Bit depth                                : 8 bits

    Scan type                                : Progressive

    Compression mode                         : Lossy

    Bits/(Pixel*Frame)                       : 0.304

    Stream size                              : 1.17 GiB (78%)

    Writing library                          : Lavc57.16.101

    Audio

    ID                                       : 1

    Format                                   : AC-3

    Format/Info                              : Audio Coding 3

    Mode extension                           : CM (complete main)

    Format settings, Endianness              : Big

    Codec ID                                 : 2000

    Duration                                 : 1h 44mn

    Bit rate mode                            : Constant

    Bit rate                                 : 448 Kbps

    Channel(s)                               : 6 channels

    Channel positions                        : Front: L C R, Side: L R, LFE

    Sampling rate                            : 48.0 KHz

    Frame rate                               : 31.250 fps (1536 spf)

    Compression mode                         : Lossy

    Stream size                              : 335 MiB (22%)

    Alignment                                : Aligned on interleaves

    Interleave, duration                     : 42 ms (1.00 video frame)

    Interleave, preload duration             : 512 ms

    **Notes:

    Proper subs can be found on the site. Dont try to use the ones in the torrent. They are really bad.**


    More at ibit.to
    And ibit.uno
    And ibit.am
    And ibit.ws

    Reviews

    This was a great or big and fantastic movie series. i'm big fan of mr. Donnie yen. so i like that movie series. it's a complete Action or Biography movie.

    > It gets closer to the legend's personal life. A few movies about Yip Man were made in the past, but Donnie Yen's 2008 version rewrote the history. Because the craze about martial arts in the last two decades and of course digital world made it to reach every corner of the world. Followed by a sequel and its massive hit, then came many unofficial versions to this series that set in a different timeline of the martial art legend's life. With this movie, the narration gets lots closer to tell the personal life of Yip Man. But in the first half, like the previous two films, focused on the social issue. Yip Man is fighting for the children's education, when a real estate tycoon plans to replace the school building to a commercial complex. That's it, later the story begins to take us to the random events like a man who's hungry for the best fighter in the town title who end up challenging Yip Man to face him. From there, it's all about Yip Man and his ill wife where the movie switches from action mode to sentimental. That's not what we expected from a man who's famous for his martial art. Surprisingly, this different approach in storytelling was refreshing. Saving school, the clash for the title and ill wife, so the overall movie was like had three episodes and each dealt on a different motive. Being a biopic and also a martial art movie, it exploited the theme fairly. I can't say Mike Tyson's acting was so good because it was weird him to speak Cantonese. He was in a minor role, but his presence was a big boost for the movie. If we see him in an action movie, then we all know what to expect and it did not fail to fulfill our wish. > "There's nothing more important than the love of those by your side." The stunts were not as good as the previous two films and they were too short as well, but technically looked so perfect, especially locking horns between Tyson and Donnie Yen was like head-to-head confrontation between Hollywood and Hong Kong. The other reason to shorten stunts in the movie was to get closer to the legend's personal life. After the survival and fighting the foreign forces, now the time to focus on his own life issues. The first two films were breathtaking, no one can doubt that. I don't know why it took so long for this third movie, but it still worked. Yet not the best in the trilogy, but remained very close to them with unlike storyline and action sequences. I was disappointed for not continuing from where it ended in the 2nd part. I mean the story has a clean flow, but not what I expected, like, I wanted Bruce Lee and the grand-master coming together. Actually, I never expected the third installment, I considered it was one of the best duologies you could find in world cinema. But I'm happy they made this one and I'm very much sure there will be fourth. So at least I can expect the Bruce Lee's part in the Yip Man's life story. I was waiting for that from a very long and I believe it won't let me down this time. All the above, I'm looking for the official announcement. 7½/10

    Comments

    3 years ago

    Thanks!

    3 years ago

    can anyone help with the subs? I can;t find them on the site

    3 years ago

    subs translations are off, even the english parts. difficult to follow the conversations and thus the story.

    3 years ago

    Yeah, these subs are Kaka.

    Files

    Ip.Man.3.2015.CHINESE.BRRip.XviD.AC3-RARBG.avi 1.5 GB
    Ip.Man.3.2015.CHINESE.BRRip.XviD.AC3-RARBG.nfo 3.1 kB
    RARBG.com.avi 1.1 MB
    RARBG.com.txt 30 B
    Subs/English.srt 72 kB

    Stream

    Downloading Seeding Ip.Man.3.2015.CHINESE.BRRip.XviD.AC3-RARBG from to 0 peers.
    of
    0 b/s / ↗0 b/s