• 1
  • 0
  • done
Sponsored Downloadondemand_video
  • Indycar.2019.R05.Indycar.Grand.Prix.Race.Viasat.Sport.HD.1080I.Rus.Eng.mkv
  • 12 GB
  • ales
  • Indycar 2019 R05 Grand Prix Race Viasat Sport 1080I Rus Eng mkv
  • Спортивные турниры, фильмы и п

Description

NTT IndyCar Series 2019. Этап 05. Indycar Grand Prix. Гонка. Viasat Sport HD

image

Вид спорта : Автоспорт

Описание : 5 этап NTT IndyCar Series 2019.

Автор рипа/записи : Ales

Качество : DVB-S2 Remux

Формат видео : MKV

Видео : H264, 1920x1080Ι, 25 кадр/c, 9 200 kb/s

Аудио : MP2 2.0, 48.0 KHz, 192 kb/s

Язык комментариев :

  1. Русский (Сергей Беднарук)

  2. Английский (NBC) Дата/Год выпуска

: 11.05.2019

Продолжительность

2:59:03

Скриншоты

imageimageimageimage

MediaInfo

`General
Unique ID : 212157380043391549367656093629269937208 (0x9F9C066DECF21C677768BDD644840C38)
Complete name : M:Indycar.2019Indycar.2019.R05.Indycar.Grand.Prix.Race.Viasat.Sport.HD.1080I.Rus.Eng.mkv
Format : Matroska
Format version : Version 4
File size : 11.2 GiB
Duration : 2 h 59 min
Overall bit rate : 8 942 kb/s
Encoded date : UTC 2019-05-11 23:05:28
Writing application : mkvmerge v31.0.0 ('Dolores In A Shoestand') 64-bit
Writing library : libebml v1.3.6 + libmatroska v1.4.9

Video
ID : 1
Format : AVC
Format/Info : Advanced Video Codec
Format profile : High@L4
Format settings : CABAC / 4 Ref Frames
Format settings, CABAC : Yes
Format settings, RefFrames : 4 frames
Codec ID : V_MPEG4/ISO/AVC
Duration : 2 h 59 min
Bit rate : 8 549 kb/s
Width : 1 920 pixels
Height : 1 080 pixels
Display aspect ratio : 16:9
Frame rate mode : Variable
Frame rate : 50.000 FPS
Original frame rate : 25.000 FPS
Standard : Component
Color space : YUV
Chroma subsampling : 4:2:0
Bit depth : 8 bits
Scan type : Interlaced
Scan type, store method : Separated fields
Scan order : Top Field First
Bits/(Pixel*Frame) : 0.082
Stream size : 10.7 GiB (96%)
Default : Yes
Forced : No
Color range : Limited
Color primaries : BT.709
Transfer characteristics : BT.709
Matrix coefficients : BT.709

Audio #1
ID : 2
Format : MPEG Audio
Format version : Version 1
Format profile : Layer 2
Codec ID : A_MPEG/L2
Codec ID/Hint : MP2
Duration : 2 h 59 min
Bit rate mode : Constant
Bit rate : 192 kb/s
Channel(s) : 2 channels
Sampling rate : 48.0 kHz
Frame rate : 41.666 FPS (1152 SPF)
Compression mode : Lossy
Delay relative to video : -8 ms
Stream size : 246 MiB (2%)
Language : Russian
Default : Yes
Forced : No

Audio #2
ID : 3
Format : MPEG Audio
Format version : Version 1
Format profile : Layer 2
Codec ID : A_MPEG/L2
Codec ID/Hint : MP2
Duration : 2 h 59 min
Bit rate mode : Constant
Bit rate : 192 kb/s
Channel(s) : 2 channels
Sampling rate : 48.0 kHz
Frame rate : 41.667 FPS (1152 SPF)
Compression mode : Lossy
Delay relative to video : -8 ms
Stream size : 246 MiB (2%)
Language : English
Default : No
Forced : No `


More at ibit.to
And ibit.uno
And ibit.ws

Comments

Files

Indycar.2019.R05.Indycar.Grand.Prix.Race.Viasat.Sport.HD.1080I.Rus.Eng.mkv 12 GB

Stream

Downloading Seeding Indycar.2019.R05.Indycar.Grand.Prix.Race.Viasat.Sport.HD.1080I.Rus.Eng.mkv from to 0 peers.
of
0 b/s / ↗0 b/s