• 0
  • 0
  • 5
Sponsored Download
  • In.The.Mood.For.Love.2000.1080p.BluRay.x264-CiNEFiLE
  • 7.7 GB
  • Mood Love 2000 1080p BluRay x264 CiNEFiLE
  • Cantonese,Shanghainese,French
  • Other

Description

Set in Hong Kong| 1962| Chow Mo-Wan is a newspaper editor who moves into a new building with his wife. At the same time| Su Li-zhen| a beautiful secretary and herexecutive husband also move in to the crowded building. With their spouses often away| Chow and Li-zhen spend most of their time together as friends. They haveeverything in common from noodle shops to martial arts. Soon| they are shocked to discover that their spouses are having an affair. Hurt and angry| they find comfortin their growing friendship even as they resolve not to be like their unfaithful mates.

http://imdb.com/title/tt0118694/

In.The.Mood.For.Love.2000.1080p.BluRay.x264-CiNEFiLE

ÛÛÛÛÛßßÜÜ                                                                      

ÛÛß      ßß                                                                    

²  Ü²Ü ÜÛÛÜ        Release Date ......: 09/21/12

 Ü ß  ß²Ûß                                                                    

 ² ²              Video .............. x264 @ 9588

 ²Þ²ÛÝÜÛÛÜ        Audio .............. Cantonese DTS 1510kbit/s

 Û ²ÛÛß²Ûß        Subtitles .......... English

 ÞÝ ²Û²Ü          Length ............. 98 min 40 sec

  ß Þ²Û±²Ü        Size ............... 7.64 gigs

   ß  ²Û²²Ü  Ü                                                                

       ÛÛ±²²ß ÜÜ  Ü Ü Ü  Ü ÜÜÜ ÜÜÜ ÜÜ  Ü ÜÜ  ÜÛÛÜ ÜÛÛÜ Ü²Ü Ü                  

       ÞÛÛ²ßÜ ²ÜÜ ß²ß ²ßܲ ² ² ² ² ²ÜÜ ² ²ÜÜ ßÛ²ß ßÛ²ß  ß                    

        ÛÛÜÛÛ  ÜÛ  Û  ²  Û ²ÜÛ ²ß   ÜÛ Ü  ÜÛ                                  

        ÛÛ²ÛÛ                                                                

      ÜßßÛÛÛÛ                                                                

  ÜÜßß     ß²     www.imdb.com/title/tt0118694/

    Ü²Ü ÜÛÛÜ              

Screens:

image

image

image

image

image

image

MediaInfo:

Video

ID                                       : 1

Format                                   : AVC

Format/Info                              : Advanced Video Codec

Format profile                           : High@L4.1

Format settings, CABAC                   : Yes

Format settings, ReFrames                : 4 frames

Codec ID                                 : V_MPEG4/ISO/AVC

Duration                                 : 1h 38mn

Bit rate                                 : 9 588 Kbps

Width                                    : 1 808 pixels

Height                                   : 1 080 pixels

Display aspect ratio                     : 1.674

Frame rate mode                          : Constant

Frame rate                               : 23.976 fps

Color space                              : YUV

Chroma subsampling                       : 4:2:0

Bit depth                                : 8 bits

Scan type                                : Progressive

Bits/(Pixel*Frame)                       : 0.205

Stream size                              : 6.45 GiB (84%)

Writing library                          : x264 core 128 r2216 198a7ea

Encoding settings                        : cabac=1 / ref=4 / deblock=1:0:0 / analyse=0x3:0x133 / me=umh / subme=7 / psy=1 / psyrd=1.00:0.00 / mixedref=1 / merange=16 / chromame=1 / trellis=1 / 8x8dct=1 / cqm=0 / deadzone=21,11 / fastpskip=0 / chromaqpoffset=-2 / threads=12 / lookaheadthreads=2 / slicedthreads=0 / nr=0 / decimate=1 / interlaced=0 / bluraycompat=0 / constrainedintra=0 / bframes=3 / bpyramid=2 / badapt=1 / bbias=0 / direct=1 / weightb=1 / opengop=0 / weightp=2 / keyint=250 / keyintmin=23 / scenecut=40 / intrarefresh=0 / rclookahead=40 / rc=2pass / mbtree=1 / bitrate=9588 / ratetol=1.0 / qcomp=0.60 / qpmin=0 / qpmax=69 / qpstep=4 / cplxblur=20.0 / qblur=0.5 / ip_ratio=1.40 / aq=1:1.00

Language                                 : English

Default                                  : Yes

Forced                                   : No

Audio

ID                                       : 2

Format                                   : DTS

Format/Info                              : Digital Theater Systems

Mode                                     : 16

Format settings, Endianness              : Big

Codec ID                                 : A_DTS

Duration                                 : 1h 38mn

Bit rate mode                            : Constant

Bit rate                                 : 1 509 Kbps

Channel(s)                               : 6 channels

Channel positions                        : Front: L C R, Side: L R, LFE

Sampling rate                            : 48.0 KHz

Bit depth                                : 24 bits

Compression mode                         : Lossy

Delay relative to video                  : 11ms

Stream size                              : 1.04 GiB (14%)

Language                                 : Chinese

Default                                  : Yes

Forced                                   : No

Text

ID                                       : 3

Format                                   : UTF-8

Codec ID                                 : S_TEXT/UTF8

Codec ID/Info                            : UTF-8 Plain Text

Language                                 : English

Default                                  : Yes

Forced                                   : Yes

Menu

00:00:00.000                             : en:00:00:00.000

00:05:00.175                             : en:00:05:00.175

00:09:21.227                             : en:00:09:21.227

00:11:23.349                             : en:00:11:23.349

00:14:47.470                             : en:00:14:47.470

00:17:12.323                             : en:00:17:12.323

00:19:16.655                             : en:00:19:16.655

00:24:32.554                             : en:00:24:32.554

00:27:48.458                             : en:00:27:48.458

00:31:16.166                             : en:00:31:16.166

00:36:21.179                             : en:00:36:21.179

00:38:50.995                             : en:00:38:50.995

00:40:11.826                             : en:00:40:11.826

00:42:45.313                             : en:00:42:45.313

00:45:01.240                             : en:00:45:01.240

00:51:13.320                             : en:00:51:13.320

00:57:40.499                             : en:00:57:40.499

01:01:13.169                             : en:01:01:13.169

01:06:07.338                             : en:01:06:07.338

01:13:52.470                             : en:01:13:52.470

01:15:56.844                             : en:01:15:56.844

01:18:44.261                             : en:01:18:44.261

01:21:22.878                             : en:01:21:22.878

01:24:48.542                             : en:01:24:48.542

01:29:11.137                             : en:01:29:11.137

01:29:48.550                             : en:01:29:48.550

01:33:20.428                             : en:01:33:20.428


More at ibit.to
And ibit.uno
And ibit.ws

Comments

2 years ago

Hard coded subs from another film on the video file. No good.

4 years ago

great one! thank you

2 years ago

Seed for Ashes of time redux 720p bluray please

3 years ago

love the song theme

Files

in.the.mood.for.love.2000.1080p.bluray.x264-cinefile.mkv 7.7 GB
in.the.mood.for.love.2000.1080p.bluray.x264-cinefile.nfo 15 kB
RARBG.com.txt 30 B
In.The.Mood.For.Love.2000.1080p.BluRay.x264CiNEFiLE -
in.the.mood.for.love.2000.1080p.bluray.x264cinefile.mkv 7.7 GB
in.the.mood.for.love.2000.1080p.bluray.x264cinefile.nfo 15 kB

Stream

Downloading Seeding In.The.Mood.For.Love.2000.1080p.BluRay.x264-CiNEFiLE from to 0 peers.
of
0 b/s / ↗0 b/s