• 3
  • 2
  • 209
Sponsored Downloadondemand_video
76%

The Discreet Charm of the Bourgeoisie (1972)

  • Comedy
  • In Luis Buñuel’s deliciously satiric masterpiece, an upper-class sextet sits down to dinner but never eats, their attempts continually thwarted by a vaudevillian mixture of events both actual and imagined.

    expand_more
    French
  • $800,000
  • Description

    Il fascino discreto della borghesia - Le charme discret de la bourgeoisie (1972).H264.Italian.French.Ac3.sub.ita.eng.iCV-MIRCrew

    **image
    **

    ** NO FOUND ONLY ORIGINAL RELEASE **

    **

    My release is always in double track audio italian and Original audio

    for select it use VLC or dvd player home

    not use wmp

    ENGLISH SUBTITLE INSIDE

    Il fascino discreto della borghesia - Le charme discret de la bourgeoisie (1972)

    image

    image

    image

    Riconoscimenti

    1973 - Premio Oscar

    Miglior film straniero (Francia)

    Nomination Migliore sceneggiatura non originale a Luis Buñuel e Jean-Claude Carrière

    1973 - Golden Globe

    Nomination Miglior film straniero (Francia)

    1974 - British Academy Film Award

    Miglior attrice protagonista a Stéphane Audran

    Migliore sceneggiatura a Luis Buñuel e Jean-Claude Carrière

    Nomination Miglior film

    Nomination Migliore regia a Luis Buñuel

    Nomination Miglior colonna sonora a Guy Villette e Luis Buñuel

    itolo originale Le charme discret de la bourgeoisie

    Lingua originale francese, spagnolo

    Paese di produzione Francia, Italia, Spagna

    Anno 1972

    Durata 105 min

    Rapporto 1,85:1

    Genere commedia, grottesco

    Regia Luis Buñuel

    Soggetto Luis Buñuel, Jean-Claude Carrière

    Sceneggiatura Luis Buñuel, Jean-Claude Carrière

    Produttore Serge Silberman

    Fotografia Edmond Richard

    Montaggio Hélène Plemiannikov

    Musiche Guy Villette, Luis Buñuel

    Scenografia François Sune

    image

    Fernando Rey: Rafaël Acosta

    Paul Frankeur: François Thenevot

    Delphine Seyrig: Simone Thenevot

    Milena Vukotic: Inès

    Michel Piccoli: ministro

    Bulle Ogier: Florence

    Julien Bertheau: Monsignor Dufour

    Stéphane Audran: Alice Sénéchal

    Jean-Pierre Cassel: Henri Sénéchal

    Pierre Maguelon: gendarme

    Maria Gabriella Maione: guerrigliera

    François Maistre: il commissario

    Damaso Muni: contadina

    Bernard Musson: cameriere

    Claude Piéplu: il colonnello

    Ellen Bahl:

    Olivier Bauchet:

    Robert Benoit:

    Christian Blathauss:

    Jean Degrave:

    Anne Marie Deschott:

    Pierre Lary:

    Robert Le Beal:

    Maxence Mailfort:

    Jacques Rispal:

    Diane Vernon:

    image

    Due coppie della borghesia parigina, la sorella di una delle due donne, che alza facilmente il gomito, insieme a un diplomatico di Miranda, un'immaginaria repubblica delle banane, tentano di organizzare una cena che, per vari motivi, non avrà mai luogo: un'incomprensione sul giorno dell'invito, un ristorante in cui si assiste alla veglia del proprietario morto, le manovre dell'esercito nel giardino dei padroni di casa, ecc. In questo film, il sogno e la realtà formano un mélange indissolubile come vuole la tradizione surrealista, di cui Luis Buñuel è capostipite e maestro

    image

    Several bourgeois friends planning to get together for dinner experience a succession of highly unusual occurrences that interfere with their expected dining enjoyment.

    image

    image
    image
    image
    image

    image

    [spoiler]

    General

    Unique ID : 19439074757276331534429848508514623656 (0xE9FD461C143EF0612F4C0DF08B6E0A8)

    Complete name : Il fascino discreto della borghesia - Le charme discret de la bourgeoisie (1972).H264.ita.fre.sub.ita.eng.iCV-MIRCrew.mkv

    Format : Matroska

    Format version : Version 2

    File size : 1.34 GiB

    Duration : 1h 41mn

    Overall bit rate : 1 893 Kbps

    Movie name : Visit www.icv-crew.org

    Encoded date : UTC 2015-10-12 14:53:00

    Writing application : Lavf54.63.100

    Writing library : Lavf54.63.100

    Video

    ID : 1

    Format : AVC

    Format/Info : Advanced Video Codec

    Format profile : [email protected]
    Format settings, CABAC : Yes

    Format settings, ReFrames : 2 frames

    Codec ID : V_MPEG4/ISO/AVC

    Duration : 1h 41mn

    Bit rate : 1 250 Kbps

    Width : 686 pixels

    Height : 412 pixels

    Display aspect ratio : 1.665

    Frame rate mode : Variable

    Frame rate : 24.000 fps

    Color space : YUV

    Chroma subsampling : 4:2:0

    Bit depth : 8 bits

    Scan type : Progressive

    Bits/(Pixel*Frame) : 0.184

    Stream size : 883 MiB (64%)

    Title : Il fascino discreto della borghesia (Luis Buñuel, 1972)

    Writing library : x264 core 130 r2273

    Encoding settings : cabac=1 / ref=2 / deblock=1:0:0 / analyse=0x1:0x131 / me=hex / subme=7 / psy=1 / psyrd=1.00:0.00 / mixedref=0 / merange=16 / chromame=1 / trellis=1 / 8x8dct=0 / cqm=0 / deadzone=21,11 / fastpskip=1 / chromaqpoffset=-2 / threads=12 / lookaheadthreads=2 / slicedthreads=0 / nr=0 / decimate=1 / interlaced=0 / bluraycompat=0 / constrainedintra=0 / bframes=3 / bpyramid=0 / badapt=1 / bbias=0 / direct=3 / weightb=1 / opengop=0 / weightp=2 / keyint=240 / keyintmin=24 / scenecut=40 / intrarefresh=0 / rclookahead=40 / rc=abr / mbtree=1 / bitrate=1250 / ratetol=1.0 / qcomp=0.60 / qpmin=10 / qpmax=69 / qpstep=4 / vbvmaxrate=24000 / vbvbufsize=24000 / nalhrd=none / ipratio=1.40 / aq=1:1.00

    Language : French

    Default : Yes

    Forced : No

    Audio #1

    ID : 2

    Format : AC-3

    Format/Info : Audio Coding 3

    Mode extension : CM (complete main)

    Codec ID : A_AC3

    Duration : 1h 41mn

    Bit rate mode : Constant

    Bit rate : 448 Kbps

    Channel(s) : 6 channels

    Channel positions : Front: L C R, Side: L R, LFE

    Sampling rate : 48.0 KHz

    Bit depth : 16 bits

    Compression mode : Lossy

    Stream size : 325 MiB (24%)

    Title : Italiano AC3 5.1 448kbps

    Language : Italian

    Default : Yes

    Forced : No

    Audio #2

    ID : 3

    Format : AC-3

    Format/Info : Audio Coding 3

    Mode extension : CM (complete main)

    Codec ID : A_AC3

    Duration : 1h 41mn

    Bit rate mode : Constant

    Bit rate : 192 Kbps

    Channel(s) : 2 channels

    Channel positions : Front: L R

    Sampling rate : 48.0 KHz

    Bit depth : 16 bits

    Compression mode : Lossy

    Stream size : 139 MiB (10%)

    Title : Français AC3 2.0 192kbps

    Language : French

    Default : No

    Forced : No

    Text #1

    ID : 4

    Format : UTF-8

    Codec ID : S_TEXT/UTF8

    Codec ID/Info : UTF-8 Plain Text

    Title : Italiano

    Language : Italian

    Default : No

    Forced : No

    Text #2

    ID : 5

    Format : UTF-8

    Codec ID : S_TEXT/UTF8

    Codec ID/Info : UTF-8 Plain Text

    Title : English

    Language : English

    Default : No

    Forced : No

    [/spoiler]

    **


    More at ibit.to
    And ibit.uno
    And ibit.ws

    Reviews

    This came in the outstanding 10-DVD boxed set 'Rialto Pictures: 10 Years', one of the finest things I've bought from The Criterion Collection (and a great deal too, one I'd heartily endorse). I had to wait an entire day, after watching the dreadful 'Disaster Movie', to get the acrid taste out of my mouth to watch this one, by my fourth favourite director ever ('Viridiana' is still probably my favourite of his, though). Luckily it had three of my favourite French actors from the period, in Bulle Ogier (just check out 'Maitresse' if you don't understand why), Delphine Seyrig and Fernando Rey (for the two 'French Connection' films alone)--even though for a director of Bunuel's strength, any actors could have sufficed. It's the ideas that stand out most triumphantly. It's most known for being Bunuel's Oscar-winner for Best Foreign Language Film, but its OTHER nomination is what's almost neglected when people talk about him. Yes, they talk about Bunuel the director, or (from David Thomson) Bunuel the photographer, but people never realize his two nominations for the Calanda, Spain-native were never for director, but for writing (with another nod for his swan song, 'The Obscure Object of Desire').

    Comments

    Files

    Il fascino discreto della borghesia - Le charme discret de la bourgeoisie (1972).H264.ita.fre.sub.ita.eng.iCV-MIRCrew.mkv 1.3 GB
    Il fascino discreto della borghesia Le charme discret de la bourgeoisie (1972).H264.ita.fre.sub.ita.eng.iCV-MIRCrew.mkv 1.3 GB

    Stream

    Downloading Seeding Il fascino discreto della borghesia - Le charme discret de la bourgeoisie (1972).H264.Italian.French.Ac3.sub.ita.eng.iCV-MIRCrew from to 0 peers.
    of
    0 b/s / ↗0 b/s