• 0
  • 0
  • 6
Sponsored Downloadondemand_video
  • Ideal Home (2018) 720p HDRip x264 AAC by Full4movies
  • 830 MB
  • shmasti
  • Ideal Home 2018 720p HDRip x264 Full4movies
  • English
  • h.264/x264
66%

Ideal Home (2018)

  • Drama Comedy
  • A couple is going through marital troubles made worse when a previously unknown grandson shows up.

    expand_more
    English
  • $10,000,000
  • Description

    image

    General

    Complete name : Ideal Home (2018) 720p HDRip x264 AAC by Full4movies.mkv

    Format : Matroska

    Format version : Version 4 / Version 2

    File size : 830 MiB

    Duration : 1 h 31 min

    Overall bit rate : 1 271 kb/s

    Encoded date : UTC 2018-06-30 07:51:24

    Writing application : mkvmerge v8.1.0 ('Psychedelic Postcard') 32bit

    Writing library : libebml v1.3.1 + libmatroska v1.4.2

    Video

    ID : 1

    Format : AVC

    Format/Info : Advanced Video Codec

    Format profile : [email protected]
    Format settings, CABAC : Yes

    Format settings, RefFrames : 4 frames

    Codec ID : V_MPEG4/ISO/AVC

    Duration : 1 h 31 min

    Bit rate : 1 205 kb/s

    Width : 1 280 pixels

    Height : 532 pixels

    Display aspect ratio : 2.40:1

    Frame rate mode : Variable

    Frame rate : 23.976 (24000/1001) FPS

    Color space : YUV

    Chroma subsampling : 4:2:0

    Bit depth : 8 bits

    Scan type : Progressive

    Bits/(Pixel*Frame) : 0.074

    Stream size : 786 MiB (95%)

    Writing library : x264 core 155 r2901 7d0ff22

    Default : Yes

    Forced : No

    Color range : Limited

    Color primaries : BT.709

    Transfer characteristics : BT.709

    Matrix coefficients : BT.709

    Audio

    ID : 2

    Format : AAC

    Format/Info : Advanced Audio Codec

    Format profile : LC

    Codec ID : A_AAC

    Duration : 1 h 31 min

    Bit rate : 64.1 kb/s

    Channel(s) : 2 channels

    Channel positions : Front: L R

    Sampling rate : 48.0 kHz

    Frame rate : 46.875 FPS (1024 SPF)

    Compression mode : Lossy

    Delay relative to video : -21 ms

    Stream size : 41.9 MiB (5%)

    Language : English

    Default : Yes

    Forced : No

    Screen Shoots
    image


    More at ibit.to
    And ibit.uno
    And ibit.ws

    Reviews

    Comments

    Files

    Ideal Home (2018) 720p HDRip x264 AAC by Full4movies.mkv 830 MB

    Stream

    Downloading Seeding Ideal Home (2018) 720p HDRip x264 AAC by Full4movies from to 0 peers.
    of
    0 b/s / ↗0 b/s