• 3
  • 0
  • 32
Sponsored Downloadondemand_video
  • I Still See You (2018) 720p WEB-DL x264 AAC 800MB - MovCr
  • 803 MB
  • rock3
  • 2018 720p x264 800MB MovCr WEB AAC
  • English
  • HD
68%

I Still See You (2018)

  • Thriller Fantasy
  • A spellbinding and romantic supernatural thriller. Ten years after an apocalyptic event left the world haunted by ghosts, Roni receives a threatening message from beyond the grave. Joining forces with a mysterious classmate, Kirk, Roni descends into a shadow world that blurs the bounds of the living and the dead-and begins a desperate race against time to stop a cunning killer.

    expand_more
    English

    Description

    Format                      : Matroska

    Format version              : Version 4

    File size                   : 803 MiB

    Duration                    : 1 h 38 min

    Overall bit rate            : 1 143 kb/s

    Movie name                  : I.Still.See.You.2018.720p.WEB-DL.MovCr.cc

    Encoded date                : UTC 2018-10-12 05:23:23

    Writing application         : mkvmerge v27.0.0 ('Metropolis') 32-bit

    Writing library             : libebml v1.3.6 + libmatroska v1.4.9

    Video

    ID                          : 3

    Format                      : AVC

    Format/Info                 : Advanced Video Codec

    Format profile              : [email protected]
    Format settings             : CABAC / 5 Ref Frames

    Format settings, CABAC      : Yes

    Format settings, ReFrames   : 5 frames

    Codec ID                    : V_MPEG4/ISO/AVC

    Duration                    : 1 h 38 min

    Bit rate                    : 1 077 kb/s

    Width                       : 1 280 pixels

    Height                      : 530 pixels

    Display aspect ratio        : 2.40:1

    Frame rate mode             : Constant

    Frame rate                  : 23.976 (24000/1001) FPS

    Color space                 : YUV

    Chroma subsampling          : 4:2:0

    Bit depth                   : 8 bits

    Scan type                   : Progressive

    Bits/(Pixel*Frame)          : 0.066

    Stream size                 : 756 MiB (94%)

    Writing library             : x264 core 155 r2901 7d0ff22

    Encoding settings           : cabac=1 / ref=5 / deblock=1:-1:-1 / analyse=0x3:0x113 / me=hex / subme=8 / psy=1 / psyrd=1.00:0.15 / mixedref=1 / merange=16 / chromame=1 / trellis=2 / 8x8dct=1 / cqm=0 / deadzone=21,11 / fastpskip=1 / chromaqpoffset=-3 / threads=17 / lookaheadthreads=2 / slicedthreads=0 / nr=0 / decimate=1 / interlaced=0 / bluraycompat=0 / constrainedintra=0 / bframes=3 / bpyramid=2 / badapt=1 / bbias=0 / direct=3 / weightb=1 / opengop=0 / weightp=2 / keyint=240 / keyintmin=24 / scenecut=40 / intrarefresh=0 / rclookahead=50 / rc=2pass / mbtree=1 / bitrate=1077 / ratetol=1.0 / qcomp=0.60 / qpmin=0 / qpmax=69 / qpstep=4 / cplxblur=20.0 / qblur=0.5 / vbvmaxrate=62500 / vbvbufsize=78125 / nalhrd=none / filler=0 / ipratio=1.40 / aq=1:1.00

    Default                     : Yes

    Forced                      : No

    Color range                 : Limited

    Color primaries             : BT.709

    Transfer characteristics    : BT.709

    Matrix coefficients         : BT.709

    Audio

    ID                          : 1

    Format                      : AAC LC SBR PS

    Format/Info                 : Advanced Audio Codec Low Complexity with Spectral Band Replication and Parametric Stereo

    Commercial name             : HE-AACv2

    Format settings             : NBC

    Codec ID                    : A_AAC-2

    Duration                    : 1 h 38 min

    Bit rate                    : 64.0 kb/s

    Channel(s)                  : 2 channels

    Channel layout              : ? ? ? ?

    Sampling rate               : 48.0 kHz

    Frame rate                  : 23.438 FPS (2048 SPF)

    Compression mode            : Lossy

    Delay relative to video     : 31 ms

    Stream size                 : 44.9 MiB (6%)

    Language                    : English

    Default                     : Yes

    Forced                      : No

    Text

    ID                          : 2

    Format                      : UTF-8

    Codec ID                    : S_TEXT/UTF8

    Codec ID/Info               : UTF-8 Plain Text

    Duration                    : 1 h 31 min

    Bit rate                    : 46 b/s

    Count of elements           : 872

    Stream size                 : 31.2 KiB (0%)

    Language                    : English

    Default                     : Yes

    Forced                      : No

    Menu

    00:00:00.000                : :1

    00:03:15.028                : :2

    00:12:44.973                : :3

    00:23:20.983                : :4

    00:34:36.992                : :5

    00:43:52.004                : :6

    00:52:25.017                : :7

    01:03:11.997                : :8

    01:12:54.996                : :9

    01:23:10.027                : :10

    01:32:33.965                : :11

    image
    image
    image
    image


    More at ibit.to
    And ibit.uno
    And ibit.ws

    Reviews

    Comments

    Files

    I.Still.See.You.2018.720p.WEB-DL.MovCr.cc.mkv 803 MB
    I.Still.See.You.2018.720p.WEBDL.MovCr.cc.mkv 803 MB

    Stream

    Downloading Seeding I Still See You (2018) 720p WEB-DL x264 AAC 800MB - MovCr from to 0 peers.
    of
    0 b/s / ↗0 b/s