• 1
  • 0
  • 446
Anonymous Downloadondemand_video
  • I.Am.Not.Your.Negro.2016.DOCU.720p.BluRay.x264-PSYCHD[PRiME]
  • 4.4 GB
  • sub7
  • Negro 2016 DOCU 720p BluRay x264 PSYCHD PRiME
  • English
  • Divx/Xvid
Warning! Use a VPN When Downloading Torrents!
Your IP Address is ,
Your Internet Provider can see when you download torrents! Hide your IP ADDRESS with a VPN
We strongly recommend hide.me VPN to hide your torrenting. It's FREE!
DOWNLOAD VPN
81%

I Am Not Your Negro (2017)

  • Documentary
  • Working from the text of James Baldwin’s unfinished final novel, director Raoul Peck creates a meditation on what it means to be Black in the United States.

    expand_more
    English
  • $1,000,000
  • Description

    I.Am.Not.Your.Negro.2016.DOCU.720p.BluRay.x264-PSYCHD[PRiME]

    ImDb: http://www.imdb.com/title/tt5804038

    image

    Complete name : I.Am.Not.Your.Negro.2016.DOCU.720p.BluRay.x264-PSYCHD[PRiME].mkv
    Format : Matroska
    Format version : Version 4 / Version 2
    File size : 4.37 GiB
    Duration : 1 h 33 min
    Overall bit rate : 6 666 kb/s
    Encoded date : UTC 2010-02-22 21:41:29
    Writing application : novariabledata
    Writing library : novariabledata

    Video
    ID : 1
    Format : AVC
    Format/Info : Advanced Video Codec
    Format profile : [email protected]
    Format settings, CABAC : Yes
    Format settings, ReFrames : 5 frames
    Codec ID : VMPEG4/ISO/AVC
    Duration : 1 h 33 min
    Bit rate : 5 158 kb/s
    Width : 1 280 pixels
    Height : 688 pixels
    Display aspect ratio : 1.85:1
    Frame rate mode : Constant
    Frame rate : 23.976 (24000/1001) FPS
    Color space : YUV
    Chroma subsampling : 4:2:0
    Bit depth : 8 bits
    Scan type : Progressive
    Bits/(Pixel*Frame) : 0.244
    Stream size : 3.29 GiB (75%)
    Writing library : x264 core 148 r2744 b97ae06
    Encoding settings : cabac=1 / ref=5 / deblock=1:-3:-3 / analyse=0x3:0x113 / me=umh / subme=8 / psy=1 / psy
    rd=1.00:0.00 / mixedref=1 / merange=24 / chromame=1 / trellis=1 / 8x8dct=1 / cqm=0 / deadzone=21,11 / fastpskip=1 / chromaqpoffset=-2 / threads=21 / lookaheadthreads=3 / slicedthreads=0 / nr=0 / decimate=1 / interlaced=0 / bluraycompat=0 / constrainedintra=0 / bframes=3 / bpyramid=2 / badapt=2 / bbias=0 / direct=3 / weightb=1 / opengop=0 / weightp=2 / keyint=240 / keyintmin=24 / scenecut=40 / intrarefresh=0 / rclookahead=50 / rc=2pass / mbtree=1 / bitrate=5158 / ratetol=1.0 / qcomp=0.60 / qpmin=0 / qpmax=69 / qpstep=4 / cplxblur=20.0 / qblur=0.5 / ipratio=1.40 / aq=3:0.80
    Default : Yes
    Forced : No
    Statistics Tags Issue : novariabledata 1970-01-01 00:00:00 / novariabledata 2010-02-22 21:41:29
    FromStatsBitRate : 5154212
    FromStats
    Duration : 01:33:50.417000000
    FromStatsFrameCount : 134995
    FromStats
    StreamSize : 3627545634

    Audio
    ID : 2
    Format : DTS
    Format/Info : Digital Theater Systems
    Mode : 16
    Format settings, Endianness : Big
    Codec ID : ADTS
    Duration : 1 h 33 min
    Bit rate mode : Constant
    Bit rate : 1 509 kb/s
    Channel(s) : 6 channels
    Channel positions : Front: L C R, Side: L R, LFE
    Sampling rate : 48.0 kHz
    Frame rate : 93.750 FPS (512 spf)
    Bit depth : 24 bits
    Compression mode : Lossy
    Stream size : 1 013 MiB (23%)
    Language : English
    Default : Yes
    Forced : No
    Statistics Tags Issue : no
    variabledata 1970-01-01 00:00:00 / novariabledata 2010-02-22 21:41:29
    FromStats
    BitRate : 1508999
    FromStatsDuration : 01:33:50.422000000
    FromStats
    FrameCount : 527852
    FromStats_StreamSize : 1062038224

    Text #1
    ID : 3
    Format : UTF-8
    Codec ID : STEXT/UTF8
    Codec ID/Info : UTF-8 Plain Text
    Language : English
    Default : No
    Forced : No
    Statistics Tags Issue : no
    variabledata 1970-01-01 00:00:00 / novariabledata 2010-02-22 21:41:29
    FromStats
    BitRate : 86
    FromStatsDuration : 01:28:20.045000000
    FromStats
    FrameCount : 1341
    FromStats_StreamSize : 57389

    Text #2
    ID : 4
    Format : UTF-8
    Codec ID : STEXT/UTF8
    Codec ID/Info : UTF-8 Plain Text
    Title : SDH
    Language : English
    Default : No
    Forced : No
    Statistics Tags Issue : no
    variabledata 1970-01-01 00:00:00 / novariabledata 2010-02-22 21:41:29
    FromStats
    BitRate : 89
    FromStatsDuration : 01:28:27.010000000
    FromStats
    FrameCount : 1419
    FromStats_StreamSize : 59610

    Menu
    00:00:00.000 : en:00:00:00.000
    00:05:48.682 : en:00:05:48.682
    00:11:47.498 : en:00:11:47.498
    00:16:26.402 : en:00:16:26.402
    00:22:24.051 : en:00:22:24.051
    00:26:43.227 : en:00:26:43.227
    00:33:08.862 : en:00:33:08.862
    00:38:32.310 : en:00:38:32.310
    00:44:33.713 : en:00:44:33.713
    00:49:42.479 : en:00:49:42.479
    00:55:38.293 : en:00:55:38.293
    01:00:11.358 : en:01:00:11.358
    01:06:10.967 : en:01:06:10.967
    01:10:46.784 : en:01:10:46.784
    01:16:48.646 : en:01:16:48.646
    01:21:44.525 : en:01:21:44.525

    image

    Click Image To View Full Size

    image
    Click To View Screenshot
    Click To View Screenshot
    Click To View Screenshot


    More at ibit.to
    And ibit.uno
    And ibit.am
    And ibit.ws

    Reviews

    Comments

    Files

    I.Am.Not.Your.Negro.2016.DOCU.720p.BluRay.x264-PSYCHD[PRiME].mkv 4.4 GB
    Please Support!! Read More!!!.txt 300 B
    i.am.not.your.negro.2016.docu.720p.bluray.x264-psychd.sample[PRiME].mkv 39 MB
    i.am.not.your.negro.2016.docu.720p.bluray.x264-psychd.subs.rar-missing -
    Torrent Downloaded From 1337x.to.txt 100 B
    Torrent Downloaded From ExtraTorrent.cc.txt 400 B
    Sample/i.am.not.your.negro.2016.docu.720p.bluray.x264-psychd.sample[PRiME].mkv 39 MB
    Subs/i.am.not.your.negro.2016.docu.720p.bluray.x264-psychd.subs.rar-missing -
    I.Am.Not.Your.Negro.2016.DOCU.720p.BluRay.x264PSYCHD[PRiME] -
    I.Am.Not.Your.Negro.2016.DOCU.720p.BluRay.x264PSYCHD[PRiME].mkv 4.4 GB
    /i.am.not.your.negro.2016.docu.720p.bluray.x264psychd.sample[PRiME].mkv 39 MB
    /i.am.not.your.negro.2016.docu.720p.bluray.x264psychd.subs.rar-missing -
    /Torrent Downloaded From 1337x.to.txt 69 B
    /Torrent Downloaded From ExtraTorrent.cc.txt 446 B

    Stream

    Downloading Seeding I.Am.Not.Your.Negro.2016.DOCU.720p.BluRay.x264-PSYCHD[PRiME] from to 0 peers.
    of
    0 b/s / ↗0 b/s