• 8
  • 1
Sponsored Downloadondemand_video
63%

Hunter Killer (2018)

  • Action Thriller
  • Captain Glass of the USS Arkansas discovers that a coup d'état is taking place in Russia, so he and his crew join an elite group working on the ground to prevent a war.

    expand_more
    English

    Description

    Hunter Killer - Caccia negli abissi (2018).720p.H264.italian.english.Ac3-5.1.sub.NUita.eng-MIRCrew

    image

    NO FOUND ONLY ORIGINAL RELEASE

    My release is always in double track audio italian and Original audio

    for select it use VLC or dvd player home

    not use wmp

    PRESENTI I SOTTOTITOLI ITALIANI PER NON UDENTI

    Hunter Killer - Caccia negli abissi (2018)

    Quality MIRCrew on HD 720p da  2,7 gb

    image

    image

    image

    image

    Titolo originale    Hunter Killer

    Lingua originale    inglese

    Paese di produzione    Stati Uniti d'America, Cina

    Anno    2018

    Durata    121 min

    Rapporto    2,39 : 1

    Genere    thriller, azione

    Regia    Donovan Marsh

    Soggetto    dal romanzo di Don Keith e George Wallace

    Sceneggiatura    Arne Schmidt, Jamie Moss

    image

        Gerard Butler: Joe Glass

        Gary Oldman: Charles Donnegan

        Common: John Fisk

        Linda Cardellini: Jayne Norquist

        Toby Stephens: Bill Beaman

        Carter McIntyre: Brian Edwards

        Zane Holtz: Martinelli

        Caroline Goodall: presidente Dover

        Alexander Diachenko: presidente Zakarin

        Michael Nyqvist: Sergi Andropoyov

        David Gyasi: comandante

        Ryan McPartlin: Johnston

        Michael Trucco: Devin Hall

        Shane Taylor: Turner

        Jurij Kolokol'nikov: Oleg

        Corey Johnson: capitano

        Cosmo Jarvis: tecnico

        Michael Jibson: Reed

        Igor' Žižikin: tenente Tretiak

        Mikhail Gorevoy: Dmitri Durov

    image

    In seguito ad un colpo di Stato effettuato dal ministro della difesa russo, il comandante Joe Glass si troverà suo malgrado a dover salvare il presidente russo per evitare un conflitto mondiale.

    image

    An untested American submarine captain teams with U.S. Navy Seals to rescue the Russian president, who has been kidnapped by a rogue general..

    image image image image image

    image

    General

    Unique ID                                : 84424054625762189492244894540154638622 (0x3F837B4278DC3CCD087AAFE19BA9911E)

    Complete name                            : Hunter Killer - Caccia negli abissi (2018).720p.h264.ita.eng.sub.NUita.eng-MIRCrewHunter Killer (2018).720p.h264.ita.eng.sub.NUita.eng-MIRCrew.mkv

    Format                                   : Matroska

    Format version                           : Version 4 / Version 2

    File size                                : 2.37 GiB

    Duration                                 : 2h 1mn

    Overall bit rate                         : 2 781 Kbps

    Movie name                               : MIRCrew

    Encoded date                             : UTC 2019-04-03T19:27:20Z

    Writing application                      : mkvmerge v26.0.0 ('In The Game') 64-bit

    Writing library                          : Lavf55.12.0

    Video

    ID                                       : 1

    Format                                   : AVC

    Format/Info                              : Advanced Video Codec

    Format profile                           : [email protected]

    Format settings, CABAC                   : Yes

    Format settings, ReFrames                : 4 frames

    Codec ID                                 : V_MPEG4/ISO/AVC

    Duration                                 : 2h 1mn

    Bit rate                                 : 1 900 Kbps

    Width                                    : 1 280 pixels

    Height                                   : 528 pixels

    Display aspect ratio                     : 2.40:1

    Frame rate                               : 23.976 fps

    Color space                              : YUV

    Chroma subsampling                       : 4:2:0

    Bit depth                                : 8 bits

    Scan type                                : Progressive

    Bits/(Pixel*Frame)                       : 0.117

    Stream size                              : 1.56 GiB (66%)

    Title                                    : MIRCrew

    Writing library                          : x264 core 142 r2479 dd79a61

    Encoding settings                        : cabac=1 / ref=1 / deblock=1:0:0 / analyse=0x1:0x111 / me=hex / subme=2 / psy=1 / psyrd=1.00:0.00 / mixedref=0 / merange=16 / chromame=1 / trellis=0 / 8x8dct=0 / cqm=0 / deadzone=21,11 / fastpskip=1 / chromaqpoffset=0 / threads=6 / lookaheadthreads=2 / slicedthreads=0 / nr=0 / decimate=1 / interlaced=0 / bluraycompat=0 / constrainedintra=0 / bframes=3 / bpyramid=2 / badapt=1 / bbias=0 / direct=1 / weightb=1 / opengop=0 / weightp=1 / keyint=240 / keyintmin=24 / scenecut=40 / intrarefresh=0 / rclookahead=10 / rc=abr / mbtree=1 / bitrate=1900 / ratetol=1.0 / qcomp=0.60 / qpmin=0 / qpmax=69 / qpstep=4 / vbvmaxrate=50000 / vbvbufsize=62500 / nalhrd=none / filler=0 / ipratio=1.40 / aq=1:1.00

    Language                                 : Italian

    Default                                  : Yes

    Forced                                   : No

    DURATION                                 : 02:01:41.086000000

    NUMBEROFFRAMES                         : 175051

    NUMBEROFBYTES                          : 1722454534

    STATISTICSWRITING_APP                  : mkvmerge v26.0.0 ('In The Game') 64-bit

    STATISTICSWRITINGDATEUTC             : 2019-04-04 12:27:49

    STATISTICSTAGS                         : BPS DURATION NUMBEROFFRAMES NUMBEROFBYTES

    Color primaries                          : BT.709-5, BT.1361, IEC 61966-2-4, SMPTE RP177

    Transfer characteristics                 : BT.709-5, BT.1361

    Matrix coefficients                      : BT.709-5, BT.1361, IEC 61966-2-4 709, SMPTE RP177

    Audio #1

    ID                                       : 2

    Format                                   : AC-3

    Format/Info                              : Audio Coding 3

    Mode extension                           : CM (complete main)

    Codec ID                                 : A_AC3

    Duration                                 : 2h 1mn

    Bit rate mode                            : Constant

    Bit rate                                 : 448 Kbps

    Channel(s)                               : 6 channels

    Channel positions                        : Front: L C R, Side: L R, LFE

    Sampling rate                            : 48.0 KHz

    Bit depth                                : 16 bits

    Compression mode                         : Lossy

    Delay relative to video                  : -5ms

    Stream size                              : 391 MiB (16%)

    Title                                    : Ita Ac3 5.1

    Language                                 : Italian

    Default                                  : Yes

    Forced                                   : No

    DURATION                                 : 02:01:55.328000000

    NUMBEROFFRAMES                         : 228604

    NUMBEROFBYTES                          : 409658368

    STATISTICSWRITING_APP                  : mkvmerge v26.0.0 ('In The Game') 64-bit

    STATISTICSWRITINGDATEUTC             : 2019-04-04 12:27:49

    STATISTICSTAGS                         : BPS DURATION NUMBEROFFRAMES NUMBEROFBYTES

    Audio #2

    ID                                       : 3

    Format                                   : AC-3

    Format/Info                              : Audio Coding 3

    Mode extension                           : CM (complete main)

    Codec ID                                 : A_AC3

    Duration                                 : 2h 1mn

    Bit rate mode                            : Constant

    Bit rate                                 : 448 Kbps

    Channel(s)                               : 6 channels

    Channel positions                        : Front: L C R, Side: L R, LFE

    Sampling rate                            : 48.0 KHz

    Bit depth                                : 16 bits

    Compression mode                         : Lossy

    Delay relative to video                  : -5ms

    Stream size                              : 391 MiB (16%)

    Title                                    : Eng Ac3 5.1

    Language                                 : English

    Default                                  : No

    Forced                                   : No

    DURATION                                 : 02:01:40.928000000

    NUMBEROFFRAMES                         : 228154

    NUMBEROFBYTES                          : 408851968

    STATISTICSWRITING_APP                  : mkvmerge v26.0.0 ('In The Game') 64-bit

    STATISTICSWRITINGDATEUTC             : 2019-04-04 12:27:49

    STATISTICSTAGS                         : BPS DURATION NUMBEROFFRAMES NUMBEROFBYTES

    Menu

    00:00:00.000                             : :00:00:00.000

    00:14:56.604                             : :00:14:56.479

    00:30:03.009                             : :00:30:02.926

    00:46:29.286                             : :00:46:29.203

    01:02:20.236                             : :01:02:20.153

    01:17:39.655                             : :01:17:39.530

    01:36:16.854                             : :01:36:16.771

    01:52:17.355                             : :01:52:17.147


    More at ibit.to
    And ibit.uno
    And ibit.ws

    Reviews

    __So much potential, but still a disappointment__ If you have nothing else to do and need to fill some time, this is an okay respite. But, don't expect anything more than a *standard military action movie* with cliched dialogue, unreasonable scenarios, and mediocre acting. This movie could have been decent, if the producers and script-writers had only spent some time researching facts about how the military and special forces work IRL. Instead, they decided to throw reality to the wind and use fantasy & make-believe to create contrived conveniences to support a predictable storyline. I don't mind when a movie asks me to suspend belief a little. But, this one asks us to leave all rational thinking at the door. It's __just__ interesting enough that you'll stay with it, mostly because you think it might get better. __Sadly, it doesn't__.

    Comments

    Files

    Hunter Killer (2018).720p.h264.ita.eng.sub.NUita.eng-MIRCrew.eng.srt 94 kB
    Hunter Killer (2018).720p.h264.ita.eng.sub.NUita.eng-MIRCrew.forcedeng.srt 128 B
    Hunter Killer (2018).720p.h264.ita.eng.sub.NUita.eng-MIRCrew.mkv 2.4 GB
    Hunter Killer (2018).720p.h264.ita.eng.sub.NUita.eng-MIRCrew.NUita.srt 90 kB
    Hunter Killer (2018).720p.h264.ita.eng.sub.NUita.eng-MIRCrew.srt 1.2 kB

    Stream

    Downloading Seeding Hunter Killer - Caccia negli a bissi (2018).720p.h264.ita.eng.sub.NUita.eng-MIRCrew from to 0 peers.
    of
    0 b/s / ↗0 b/s