• 3
  • 3
  • 1
Sponsored Downloadondemand_video
  • Hunter Killer.2018.HDRip.XviD.AC3.LLG
  • 1.2 GB
  • LifeLongg
  • Hunter Killer 2018 HDRip XviD AC3 LLG
  • English
  • Divx/Xvid
63%

Hunter Killer (2018)

  • Action Thriller
  • Captain Glass of the USS Arkansas discovers that a coup d'√©tat is taking place in Russia, so he and his crew join an elite group working on the ground to prevent a war.

    expand_more
    English

    Description

    Quote:

    __

    *****************************Thumbnail:*******************

    image

    ***************************Screenshots:*****************

    Screenshot 1

    Screenshot 2

    Screenshot 3

    Screenshot 4

    Screenshot 5

    Screenshot 6

    Screenshot 7

    Screenshot 8

    Screenshot 9

    Screenshot 0


    Hunter Killer.2018.HDRip.XviD.AC3.LLG.mp4

    Format : MPEG-4

    Format profile : Base Media

    Codec ID : isom (isom/iso2/avc1/mp41)

    File size : 1.18 GiB

    Duration : 2 h 1 min

    Overall bit rate mode : Variable

    Overall bit rate : 1 397 kb/s

    Writing application : Lavf57.83.100

    Video

    ID : 1

    Format : AVC

    Format/Info : Advanced Video Codec

    Format profile : [email protected]
    Format settings : CABAC / 1 Ref Frames

    Format settings, CABAC : Yes

    Format settings, RefFrames : 1 frame

    Codec ID : avc1

    Codec ID/Info : Advanced Video Coding

    Duration : 2 h 1 min

    Bit rate mode : Variable

    Bit rate : 1 201 kb/s

    Maximum bit rate : 3 600 kb/s

    Width : 720 pixels

    Height : 304 pixels

    Display aspect ratio : 2.35:1

    Frame rate mode : Constant

    Frame rate : 23.976 (23976/1000) FPS

    Color space : YUV

    Chroma subsampling : 4:2:0

    Bit depth : 8 bits

    Scan type : Progressive

    Bits/(Pixel*Frame) : 0.229

    Stream size : 1.02 GiB (86%)

    Codec configuration box : avcC

    Audio

    ID : 2

    Format : AC-3

    Format/Info : Audio Coding 3

    Commercial name : Dolby Digital

    Codec ID : ac-3

    Duration : 2 h 1 min

    Bit rate mode : Constant

    Bit rate : 192 kb/s

    Channel(s) : 2 channels

    Channel layout : L R

    Sampling rate : 48.0 kHz

    Frame rate : 31.250 FPS (1536 SPF)

    Bit depth : 16 bits

    Compression mode : Lossy

    Stream size : 167 MiB (14%)

    Title : en

    Service kind : Complete Main

    Default : Yes

    Alternate group : 1


    __


    More at ibit.to
    And ibit.uno
    And ibit.ws

    Reviews

    __So much potential, but still a disappointment__ If you have nothing else to do and need to fill some time, this is an okay respite. But, don't expect anything more than a *standard military action movie* with cliched dialogue, unreasonable scenarios, and mediocre acting. This movie could have been decent, if the producers and script-writers had only spent some time researching facts about how the military and special forces work IRL. Instead, they decided to throw reality to the wind and use fantasy & make-believe to create contrived conveniences to support a predictable storyline. I don't mind when a movie asks me to suspend belief a little. But, this one asks us to leave all rational thinking at the door. It's __just__ interesting enough that you'll stay with it, mostly because you think it might get better. __Sadly, it doesn't__.

    Comments

    Files

    SAMPLE.ts 10 MB
    Hunter Killer.2018.HDRip.XviD.AC3.LLG.mp4 1.2 GB

    Stream

    Downloading Seeding Hunter Killer.2018.HDRip.XviD.AC3.LLG from to 0 peers.
    of
    0 b/s / ↗0 b/s