• 22
  • 3
  • done
Sponsored Downloadondemand_video
  • Hunter Killer 2018 BDRip 1080p seleZen
  • 15 GB
  • zhakkkkke
  • Hunter Killer 2018 BDRip 1080p seleZen
  • Other
63%

Hunter Killer (2018)

  • Action Thriller
  • Captain Glass of the USS Arkansas discovers that a coup d'état is taking place in Russia, so he and his crew join an elite group working on the ground to prevent a war.

    expand_more
    English

    Description

    Хантер Киллер / Hunter Killer

    image

    Страна : США image

    Производство : Millennium Films, Original Film, Hishow Entertainment, Tooley Productions

    Год выпуска : 2018

    Жанр : боевик, триллер

    Продолжительность : 02:01:42

    Перевод : Профессиональный (полное дублирование) | iTunes

    Субтитры : английские (full + SDH)

    Оригинальная аудиодорожка : английский

    Режиссер : Донован Марш / Donovan Marsh

    В ролях : Джерард Батлер, Гари Олдман, Коммон, Зейн Холц, Микаэл Нюквист, Тоби Стивенс, Этан Бейрд

    Описание : Американская атомная подлодка «Хантер Киллер» вместе с подразделением военно-морских сил США вступает в крайне рискованную боевую авантюру по спасению мира от катастрофы. Когда время на исходе и каждая минута на счету, элитной команде придется совершить невозможное, чтобы предотвратить конфликт мирового масштаба...

    image image image

    Тип релиза : BDRip 1080p

    Контейнер : MKV

    Видео : MPEG-4 AVC, 1920x808 (2.40:1), 23.976 fps, 16553 kbps

    Аудио №1 : 48.0 kHz, AC3 Dolby Digital, 3/2 (L,C,R,l,r) + LFE ch, ~384 kbps | RUS

    Аудио №2 : 48.0 kHz, AC3 Dolby Digital, 3/2 (L,C,R,l,r) + LFE ch, ~640 kbps | ENG

    Формат субтитров : softsub (SRT)

    Дополнительная информация

    Релиз от :

    image

    MediaInfo

    ` General

    Unique ID : 248352976706059997049178064140642700600 (0xBAD70B204C7E858FA3828D7374824D38)
    Complete name : Hunter.Killer.2018.BDRip.1080p.seleZen.mkv
    Format : Matroska
    Format version : Version 4
    File size : 14.9 GiB
    Duration : 2 h 1 min
    Overall bit rate : 17.6 Mb/s
    Movie name : Hunter Killer (2018) from селезень
    Encoded date : UTC 2019-01-22 21:15:18
    Writing application : mkvmerge v29.0.0 ('Like It Or Not') 64-bit
    Writing library : libebml v1.3.6 + libmatroska v1.4.9

    Video
    ID : 1
    Format : AVC
    Format/Info : Advanced Video Codec
    Format profile : High@L4.1
    Format settings : CABAC / 5 Ref Frames
    Format settings, CABAC : Yes
    Format settings, ReFrames : 5 frames
    Codec ID : VMPEG4/ISO/AVC
    Duration : 2 h 1 min
    Bit rate : 16.6 Mb/s
    Width : 1 920 pixels
    Height : 808 pixels
    Display aspect ratio : 2.40:1
    Frame rate mode : Constant
    Frame rate : 23.976 (24000/1001) FPS
    Color space : YUV
    Chroma subsampling : 4:2:0
    Bit depth : 8 bits
    Scan type : Progressive
    Bits/(Pixel*Frame) : 0.445
    Stream size : 14.1 GiB (94%)
    Title : Hunter Killer (2018) - TnP @ MTeam
    Writing library : x264 core 157 r2938 2b00a84 TnP@MTeam Mod
    Encoding settings : cabac=1 / ref=5 / deblock=1:-3:-3 / analyse=0x3:0x133 / me=umh / subme=11 / psy=1 / psy
    rd=1.05:0.00 / mixedref=1 / merange=64 / chromame=1 / trellis=2 / 8x8dct=1 / cqm=0 / deadzone=21,11 / fastpskip=0 / chromaqpoffset=-2 / threads=12 / lookaheadthreads=3 / slicedthreads=0 / nr=0 / decimate=0 / interlaced=0 / bluraycompat=0 / constrainedintra=0 / bframes=11 / bpyramid=2 / badapt=2 / bbias=0 / direct=3 / weightb=1 / opengop=0 / weightp=2 / keyint=250 / keyintmin=24 / scenecut=40 / intrarefresh=0 / rclookahead=250 / rc=crf / mbtree=0 / crf=16.2 / qcomp=0.60 / qpmin=0 / qpmax=69 / qpstep=4 / vbvmaxrate=62500 / vbvbufsize=78125 / crfmax=0.0 / nalhrd=none / filler=0 / ipratio=1.30 / pb_ratio=1.20 / aq=3:0.83 / zones=9417,9461,crf=13.5/17823,17907,crf=13.5/17950,18004,crf=13.5/18057,18147,crf=13.5/18185,18221,crf=13.5/20671,20697,crf=13.5/20940,20999,crf=13.5/22322,22364,crf=13.5/22579,22613,crf=13.5/22787,22819,crf=13.5/22997,23039,crf=13.5/23092,23137,crf=13.5/23207,23246,crf=13.5/23247,23327,crf=13.5/25155,25174,crf=13.5/27316,27385,crf=13.5/28272,28363,crf=13.5/28782,28979,crf=13.5/31961,31990,crf=13.5/33896,34042,crf=13.5/34313,34349,crf=13.5/34362,34407,crf=13.5/34677,34909,crf=13.5/34993,35024,crf=13.5/35253,35285,crf=13.5/35377,35419,crf=13.5/35458,35527,crf=13.5/36100,36176,crf=13.5/36401,36550,crf=13.5/36760,36860,crf=13.5/37314,37420,crf=13.5/37868,37922,crf=13.5/38365,38453,crf=13.5/39150,39424,crf=13.5/45074,45117,crf=13.5/46099,46298,crf=13.5/47557,47642,crf=13.5/47753,48085,crf=13.5/50356,50462,crf=13.5/50463,50572,crf=13.5/53269,53343,crf=13.5/58713,58747,crf=13.5/59248,59285,crf=13.5/59720,59776,crf=13.5/60661,60730,crf=13.5/60894,60981,crf=13.5/61055,61133,crf=13.5/63194,63218,crf=13.5/65732,65794,crf=13.5/65887,65962,crf=13.5/66180,66284,crf=13.5/66458,66578,crf=13.5/67309,67665,crf=13.5/67701,67755,crf=13.5/67824,67973,crf=13.5/68063,68222,crf=13.5/68252,68335,crf=13.5/68377,68426,crf=13.5/68479,68586,crf=13.5/68709,68774,crf=13.5/68977,69067,crf=13.5/69128,69165,crf=13.5/69205,69267,crf=13.5/69347,69374,crf=13.5/69551,69707,crf=13.5/69728,69776,crf=13.5/70239,70404,crf=13.5/70516,70568,crf=13.5/70945,71159,crf=13.5/71198,71274,crf=13.5/71480,71526,crf=13.5/71786,71870,crf=13.5/75180,75305,crf=13.5/76934,77414,crf=13.5/78427,78498,crf=13.5/79252,79351,crf=13.5/87156,87298,crf=13.5/88747,88774,crf=13.5/88798,88846,crf=13.5/88889,88912,crf=13.5/90783,91097,crf=13.5/91666,92052,crf=13.5/92471,92591,crf=13.5/96875,97021,crf=13.5/97134,97170,crf=13.5/100042,100218,crf=13.5/106524,106593,crf=13.5/106614,106635,crf=13.5/107131,107139,crf=13.5/107148,107206,crf=13.5/107327,107439,crf=13.5/107587,107693,crf=13.5/107844,107958,crf=13.5/108366,108396,crf=13.5/108767,108840,crf=13.5/109332,109368,crf=13.5/109398,109420,crf=13.5/109906,109969,crf=13.5/110008,110024,crf=13.5/110203,110273,crf=13.5/110367,110388,crf=13.5/110433,110479,crf=13.5/110776,110789,crf=13.5/110868,110897,crf=13.5/112746,112773,crf=13.5/115493,115569,crf=13.5/124461,124481,crf=13.5/124630,124654,crf=13.5/125153,125176,crf=13.5/125215,125241,crf=13.5/125397,125423,crf=13.5/125544,125562,crf=13.5/125933,125954,crf=13.5/131970,132015,crf=13.5/137977,138007,crf=13.5/140545,140611,crf=13.5/161505,175081,crf=22
    Language : English
    Default : Yes
    Forced : No
    Color range : Limited
    Color primaries : BT.709
    Matrix coefficients : BT.709

    Audio #1
    ID : 2
    Format : AC-3
    Format/Info : Audio Coding 3
    Commercial name : Dolby Digital
    Codec ID : A_AC3
    Duration : 2 h 1 min
    Bit rate mode : Constant
    Bit rate : 384 kb/s
    Channel(s) : 6 channels
    Channel layout : L R C LFE Ls Rs
    Sampling rate : 48.0 kHz
    Frame rate : 31.250 FPS (1536 SPF)
    Bit depth : 16 bits
    Compression mode : Lossy
    Stream size : 334 MiB (2%)
    Title : iTunes
    Language : Russian
    Service kind : Complete Main
    Default : Yes
    Forced : Yes

    Audio #2
    ID : 3
    Format : AC-3
    Format/Info : Audio Coding 3
    Commercial name : Dolby Digital
    Codec ID : A_AC3
    Duration : 2 h 1 min
    Bit rate mode : Constant
    Bit rate : 640 kb/s
    Channel(s) : 6 channels
    Channel layout : L R C LFE Ls Rs
    Sampling rate : 48.0 kHz
    Frame rate : 31.250 FPS (1536 SPF)
    Bit depth : 16 bits
    Compression mode : Lossy
    Stream size : 557 MiB (4%)
    Title : Original
    Language : English
    Service kind : Complete Main
    Default : No
    Forced : No

    Text #1
    ID : 4
    Format : UTF-8
    Codec ID : S_TEXT/UTF8
    Codec ID/Info : UTF-8 Plain Text
    Duration : 1 h 49 min
    Bit rate : 48 b/s
    Count of elements : 1206
    Stream size : 38.6 KiB (0%)
    Title : Full
    Language : English
    Default : No
    Forced : No

    Text #2
    ID : 5
    Format : UTF-8
    Codec ID : S_TEXT/UTF8
    Codec ID/Info : UTF-8 Plain Text
    Duration : 1 h 50 min
    Bit rate : 56 b/s
    Count of elements : 1486
    Stream size : 45.3 KiB (0%)
    Title : SDH
    Language : English
    Default : No
    Forced : No

    Menu
    00:00:00.000 : en:Chapter 01
    00:06:19.629 : en:Chapter 02
    00:14:56.354 : en:Chapter 03
    00:20:00.449 : en:Chapter 04
    00:28:19.323 : en:Chapter 05
    00:38:31.184 : en:Chapter 06
    00:46:29.078 : en:Chapter 07
    00:54:15.752 : en:Chapter 08
    01:00:26.081 : en:Chapter 09
    01:09:39.967 : en:Chapter 10
    01:15:48.919 : en:Chapter 11
    01:23:29.087 : en:Chapter 12
    01:30:17.662 : en:Chapter 13
    01:39:23.249 : en:Chapter 14
    01:44:53.954 : en:Chapter 15
    01:51:35.689 : en:Chapter 16 `

    Скриншоты

    image image image


    More at ibit.to
    And ibit.uno
    And ibit.ws

    Reviews

    __So much potential, but still a disappointment__ If you have nothing else to do and need to fill some time, this is an okay respite. But, don't expect anything more than a *standard military action movie* with cliched dialogue, unreasonable scenarios, and mediocre acting. This movie could have been decent, if the producers and script-writers had only spent some time researching facts about how the military and special forces work IRL. Instead, they decided to throw reality to the wind and use fantasy & make-believe to create contrived conveniences to support a predictable storyline. I don't mind when a movie asks me to suspend belief a little. But, this one asks us to leave all rational thinking at the door. It's __just__ interesting enough that you'll stay with it, mostly because you think it might get better. __Sadly, it doesn't__.

    Comments

    6 months ago

    Сюжет не понравился. Амеры спасают российского президента, и очень вольготно чувствуют себя в российских водах.Сообщения из этой темы [5 шт.] были выделены в отдельную тему Выделено из: [5674667] лишнееG00ba

    6 months ago

    Хрень надо посмотреть, что бы лучше нарисовалась картинка "спасителей".

    6 months ago

    Хороший боевик

    6 months ago

    На оригинальной дороге очень слабый поток голоса актеров, 60% не разобрать

    6 months ago

    stas64 писал(а): 76682085Хрень надо посмотреть, что бы лучше нарисовалась картинка "спасителей". Смотрите: планки на груди Очередной фильм про крутых пиндосов, и как они в очередной раз мир спасают. Ничего нового, только в этот раз "спасатели демократии" на подводной лодке, хотя и по суше пришлось пройтись.4 из 10

    6 months ago

    Бред! Кому "наш" диктатор сдался!? Это от него надо мир спасать!

    6 months ago

    сказка конечно абсурдная, но фильм снят очень качественно

    6 months ago

    Хорошая пиндосовская сказка, в конце даже смешно, как обычно молодцы спасли всех

    5 months ago

    Вспоминается "Охота за Красным октябрём"

    5 months ago

    Вот как могли бы выглядеть сериалы на НТВ, если бы кремлёвские продюсеры не поскупились и вложили бы в производство 40 млн долларов.

    5 months ago

    Американцы спасают весь мир? Опа, а вот это что-то новенькое, такого ещё не было.

    5 months ago

    HyperHammer Я такое ещё в Armageddon 1997г., с Брюсом Виллисом видал ))

    5 months ago

    обновлено до: BDRip 1080p Dub (iTunes)Сообщения из этой темы [2 шт.] были выделены в отдельную тему kha1n id: 1050243G00ba

    5 months ago

    ну раз русским не нравится, то точно нужно качать и смотреть)

    5 months ago

    Zhakkkkke, спасибожаль что я раньше смотрел в плохом качестве но все равно просмотрел с удовольствием батальные сцены

    5 months ago

    Какая изумительная антисоветчина! Чистая, тупая, дистиллированная по своей сути.Снято красиво, это без сомнения, но сколько же милейше-туповатых антисоветских штампов присутствует! И, о боже!, как-то обошлось без розово-голубых (лесбо-геев). Но неграми приправлено знатно, в больших количествах.Раздающему - спасибо.

    5 months ago

    Хороший фильм.

    5 months ago

    lopik444 писал(а): 76766707Какая изумительная антисоветчина! Чистая, тупая, дистиллированная по своей сути. Как всегда - пиндосы круты и самые демократичные демократы во всем не демократичном мире. Только Батлер вспотел, играя самого-самого подводного демократа.Очередная пропаганда Голлувуда.Сообщения из этой темы [1 шт.] были выделены в отдельную тему Metodone id: 2589086G00ba

    5 months ago

    на ~ февраль / март заявлен выход блюрей диска с русской дорожкой T временная Сообщения из этой темы [5 шт.] были выделены в отдельную тему broflovski5 id: 42328094G00ba

    5 months ago

    Спасибо за качественный рип.

    4 months ago

    по мотивам потопления апл курск

    4 months ago

    Такой клювкы я давно не видел, фильм следует отнести к жанру клюква-фантастика чем к художественному фильму, патриотам не смотреть категорически,будет истерика и инфаркт. Тем не менее фильм мне очень понравился.

    3 months ago

    G00ba писал(а): 76783584на ~ февраль / март заявлен выход блюрей диска с русской дорожкой T временная Сообщения из этой темы [5 шт.] были выделены в отдельную тему broflovski5 id: 42328094G00ba Уже апрель,а блюрика все еще нет Я начинаю волноватся.

    Files

    Hunter.Killer.2018.BDRip.1080p.seleZen.mkv 15 GB

    Stream

    Downloading Seeding Hunter Killer 2018 BDRip 1080p seleZen from to 0 peers.
    of
    0 b/s / ↗0 b/s