• 10
  • 2
Anonymous Downloadondemand_video
  • How to Train Your Dragon The Hidden World (2019) x 1600 (2160p) HDR 5.1 x265 10bit Phun Psyz.mkv
  • 2.3 GB
  • phunpsyz
  • Train Dragon Hidden World 2019 1600 2160p HDR x265 10bit Phun Psyz mkv
  • English
  • UltraHD/4K
Warning! Use a VPN When Downloading Torrents!
Your IP Address is ,
Your Internet Provider can see when you download torrents! Hide your IP ADDRESS with a VPN
We strongly recommend hide.me VPN to hide your torrenting. It's FREE!
DOWNLOAD VPN
77%

How to Train Your Dragon: The Hidden World (2019)

  • Animation Family Adventure
  • As Hiccup fulfills his dream of creating a peaceful dragon utopia, Toothless’ discovery of an untamed, elusive mate draws the Night Fury away. When danger mounts at home and Hiccup’s reign as village chief is tested, both dragon and rider must make impossible decisions to save their kind.

    expand_more
    English
  • $129,000,000
  • Description

    www.imdb.com/title/tt2386490/

    When Hiccup discovers Toothless isn't the only Night Fury, he must seek "The Hidden World", a secret Dragon Utopia before a hired tyrant named Grimmel finds it first.

    Source: FGT 4K HDR Remux

    image

    image

    image

    image

    image

    Format                      : Matroska

    Format version              : Version 4

    File size                   : 2.28 GiB

    Duration                    : 1 h 44 min

    Overall bit rate            : 3 140 kb/s

    Writing application         : HandBrake 1.2.0 2018121700

    Video

    ID                          : 1

    Format                      : HEVC

    Format/Info                 : High Efficiency Video Coding

    Format profile              : Main [email protected]@High

    Codec ID                    : V_MPEGH/ISO/HEVC

    Duration                    : 1 h 44 min

    Bit rate                    : 2 757 kb/s

    Width                       : 3 840 pixels

    Height                      : 1 600 pixels

    Display aspect ratio        : 2.40:1

    Frame rate mode             : Constant

    Frame rate                  : 23.976 (24000/1001) FPS

    Color space                 : YUV

    Chroma subsampling          : 4:2:0

    Bit depth                   : 10 bits

    Bits/(Pixel*Frame)          : 0.019

    Stream size                 : 2.00 GiB (88%)

    Writing library             : x265 2.9:[Windows][GCC 7.1.0][64 bit] 10bit

    Color primaries             : BT.2020

    Transfer characteristics    : PQ

    Matrix coefficients         : BT.2020 non-constant

    Audio

    ID                          : 2

    Format                      : AC-3

    Format/Info                 : Audio Coding 3

    Commercial name             : Dolby Digital

    Codec ID                    : A_AC3

    Duration                    : 1 h 44 min

    Bit rate mode               : Constant

    Bit rate                    : 320 kb/s

    Channel(s)                  : 6 channels

    Channel layout              : L R C LFE Ls Rs

    Sampling rate               : 48.0 kHz

    Frame rate                  : 31.250 FPS (1536 SPF)

    Bit depth                   : 16 bits

    Compression mode            : Lossy

    Stream size                 : 238 MiB (10%)

    Title                       : Surround

    Language                    : English

    Text 

    Language                    : English

    Language                    : English

    Language                    : English

    Language                    : English

    Default                     : No

    Forced                      : No


    More at ibit.to
    And ibit.uno
    And ibit.ws

    Reviews

    i got the pleasure of getting a sneak peek of this movie its pretty great i laughed out loud and really had feelings for the characters in this movie its a good choice for older kids i dont think however its a good idea for younger kids its more dark the villans more frightening then before the movie is good very good though

    The best dream-works movie yet for kids and <a hre="http://quizlets.co/">quizlet</a> teens !!! It has a great story, great animation and great characters here's my review: The story: 10/10 the animation: 10/10 and the characters: 10/10 the movie: 10/10!!!

    I feel **veeeeery** much that we've done this dance before now. I definitely didn't hate _The Hidden World_, the animation's pretty speccy, Toothless is eternally adorable, some of the creature design is pretty cool (especially the new bad guy's beasties) and I appreciate ending a franchise on your own terms. But to me, this is still definitely the low point of the trilogy. Not crap, for sure, but hit on a lot of things I genuinely don't care for. _Final rating:★★½ - Had a lot that appealed to me, didn’t quite work as a whole._

    Comments

    Files

    How to Train Your Dragon The Hidden World (2019) x 1600 (2160p) HDR 5.1 x265 10bit Phun Psyz.mkv 2.3 GB

    Stream

    Downloading Seeding How to Train Your Dragon The Hidden World (2019) x 1600 (2160p) HDR 5.1 x265 10bit Phun Psyz.mkv from to 0 peers.
    of
    0 b/s / ↗0 b/s