• 8
  • 1
  • 11
Anonymous Downloadondemand_video
  • How.To.Train.Your.Dragon.The.Hidden.World.2019.DVDRip.x264.AC3-iCMAL
  • 701 MB
  • icmal
  • Train Dragon Hidden World 2019 DVDRip x264 AC3 iCMAL
  • English
  • h.264/x264
Warning! Use a VPN When Downloading Torrents!
Your IP Address is ,
Your Internet Provider can see when you download torrents! Hide your IP ADDRESS with a VPN
We strongly recommend Trust.Zone VPN to hide your torrenting. It's FREE!
DOWNLOAD VPN
77%

How to Train Your Dragon: The Hidden World (2019)

  • Animation Family Adventure
  • As Hiccup fulfills his dream of creating a peaceful dragon utopia, Toothless’ discovery of an untamed, elusive mate draws the Night Fury away. When danger mounts at home and Hiccup’s reign as village chief is tested, both dragon and rider must make impossible decisions to save their kind.

    expand_more
    English
  • $129,000,000
  • Description

    image

    How.To.Train.Your.Dragon.The.Hidden.World.2019.DVDRip.x264.AC3-iCMAL

    Animation: Action: Adventure:

    image

    https://www.imdb.com/title/tt2386490/

    Director: Dean DeBlois

    Writers: Dean DeBlois, Cressida Cowell

    Stars: Jay Baruchel, America Ferrera, F. Murray Abraham

    Storyline

    As Hiccup fulfills his dream of creating a peaceful dragon utopia, Toothless' discovery of an untamed, elusive mate draws the Night Fury away. When danger mounts at home and Hiccup's reign as village chief is tested, both dragon and rider must make impossible decisions to save their kind.

    image

    image

    image

    Quote:

    __

    General

    Unique ID : 176959071039706576352004281484474641454 (0x852113CF7AAF39C98EA57C42F4B8EC2E)

    Complete name : C:UsersAdministratorDownloadsHow.To.Train.Your.Dragon.The.Hidden.World.2019.DVDRip.x264.AC3-iCMAL.mkv

    Format : Matroska

    Format version : Version 2

    File size : 701 MiB

    Duration : 1 h 44 min

    Overall bit rate : 941 kb/s

    Encoded date : UTC 2019-05-05 00:04:24

    Writing application : mkvmerge v7.0.0 ('Where We Going') 32bit built on Jun 9 2014 15:08:34

    Writing library : libebml v1.3.0 + libmatroska v1.4.1

    Video

    ID : 1

    Format : AVC

    Format/Info : Advanced Video Codec

    Format profile : [email protected]
    Format settings : CABAC / 4 Ref Frames

    Format settings, CABAC : Yes

    Format settings, ReFrames : 4 frames

    Codec ID : V_MPEG4/ISO/AVC

    Duration : 1 h 44 min

    Bit rate : 487 kb/s

    Width : 720 pixels

    Height : 392 pixels

    Display aspect ratio : 1.85:1

    Frame rate mode : Constant

    Frame rate : 29.970 (30000/1001) FPS

    Color space : YUV

    Chroma subsampling : 4:2:0

    Bit depth : 8 bits

    Scan type : Progressive

    Bits/(Pixel*Frame) : 0.058

    Stream size : 363 MiB (52%)

    Writing library : x264 core 142 r2431 ac76440

    Encoding settings : cabac=1 / ref=3 / deblock=1:0:0 / analyse=0x3:0x113 / me=hex / subme=7 / psy=1 / psyrd=1.00:0.00 / mixedref=1 / merange=16 / chromame=1 / trellis=1 / 8x8dct=1 / cqm=0 / deadzone=21,11 / fastpskip=1 / chromaqpoffset=-2 / threads=6 / lookaheadthreads=1 / slicedthreads=0 / nr=0 / decimate=1 / interlaced=0 / bluraycompat=0 / constrainedintra=0 / bframes=3 / bpyramid=2 / badapt=1 / bbias=0 / direct=1 / weightb=1 / opengop=0 / weightp=2 / keyint=300 / keyintmin=29 / scenecut=40 / intrarefresh=0 / rclookahead=40 / rc=2pass / mbtree=1 / bitrate=487 / ratetol=1.0 / qcomp=0.60 / qpmin=0 / qpmax=69 / qpstep=4 / cplxblur=20.0 / qblur=0.5 / ip_ratio=1.40 / aq=1:1.00

    Default : Yes

    Forced : No

    Audio

    ID : 2

    Format : AC-3

    Format/Info : Audio Coding 3

    Commercial name : Dolby Digital

    Codec ID : A_AC3

    Duration : 1 h 44 min
    Bit rate mode : Constant

    Bit rate : 448 kb/s

    Channel(s) : 6 channels

    Channel layout : L R C LFE Ls Rs

    Sampling rate : 48.0 kHz

    Frame rate : 31.250 FPS (1536 SPF)

    Bit depth : 16 bits

    Compression mode : Lossy

    Stream size : 334 MiB (48%)

    Language : English

    Service kind : Complete Main

    Default : Yes

    Forced : No

    Text #1

    ID : 3

    Format : VobSub

    Muxing mode : zlib

    Codec ID : S_VOBSUB

    Codec ID/Info : Picture based subtitle format used on DVDs

    Duration : 1 h 32 min

    Bit rate : 2 590 b/s

    Count of elements : 1542

    Stream size : 1.72 MiB (0%)

    Language : English

    Default : No

    Forced : No

    Text #2

    ID : 4

    Format : VobSub

    Muxing mode : zlib

    Codec ID : S_VOBSUB

    Codec ID/Info : Picture based subtitle format used on DVDs

    Duration : 1 h 33 min

    Bit rate : 1 889 b/s

    Count of elements : 1107

    Stream size : 1.26 MiB (0%)

    Language : Spanish

    Default : No

    Forced : No

    Menu

    00:00:00.000 : en:Chapter 01

    00:09:03.000 : en:Chapter 02

    00:25:47.000 : en:Chapter 03

    00:44:28.000 : en:Chapter 04

    01:01:54.000 : en:Chapter 05

    01:11:13.500 : en:Chapter 06

    01:24:19.500 : en:Chapter 07

    01:30:36.500 : en:Chapter 08

    __

    image


    More at ibit.to
    And ibit.uno
    And ibit.ws

    Reviews

    i got the pleasure of getting a sneak peek of this movie its pretty great i laughed out loud and really had feelings for the characters in this movie its a good choice for older kids i dont think however its a good idea for younger kids its more dark the villans more frightening then before the movie is good very good though

    The best dream-works movie yet for kids and <a hre="http://quizlets.co/">quizlet</a> teens !!! It has a great story, great animation and great characters here's my review: The story: 10/10 the animation: 10/10 and the characters: 10/10 the movie: 10/10!!!

    I feel **veeeeery** much that we've done this dance before now. I definitely didn't hate _The Hidden World_, the animation's pretty speccy, Toothless is eternally adorable, some of the creature design is pretty cool (especially the new bad guy's beasties) and I appreciate ending a franchise on your own terms. But to me, this is still definitely the low point of the trilogy. Not crap, for sure, but hit on a lot of things I genuinely don't care for. _Final rating:★★½ - Had a lot that appealed to me, didn’t quite work as a whole._

    Comments

    Files

    How.To.Train.Your.Dragon.The.Hidden.World.2019.DVDRip.x264.AC3-iCMAL.mkv 701 MB

    Stream

    Downloading Seeding How.To.Train.Your.Dragon.The.Hidden.World.2019.DVDRip.x264.AC3-iCMAL from to 0 peers.
    of
    0 b/s / ↗0 b/s