• 10
  • 8
  • 141
Sponsored Downloadondemand_video
77%

How to Train Your Dragon: The Hidden World (2019)

  • Animation Family Adventure
  • As Hiccup fulfills his dream of creating a peaceful dragon utopia, Toothless’ discovery of an untamed, elusive mate draws the Night Fury away. When danger mounts at home and Hiccup’s reign as village chief is tested, both dragon and rider must make impossible decisions to save their kind.

    expand_more
    English
  • $129,000,000
  • Description

    How To Train Your Dragon 3 The Hidden World 2019 Movies HD Cam x264 Clean Audio New Source with Sample ☻rDX☻

    ===============================================================================================

    SCREEN SHOTS:

    image

    or

    https://iphonehosting.eu/2018/12/highspeed/1.html

    File size : 691 MiB

    Duration : 1 h 32 min

    Overall bit rate mode : Constant

    Overall bit rate : 1 043 kb/s

    Movie name : How To Train Your Dragon 3 The Hidden World 2019 Movies HD Cam x264 Clean Audio New Source ☻rDX☻

    Video

    ID : 2

    Format : AVC

    Format/Info : Advanced Video Codec

    Format profile : [email protected]
    Format settings, CABAC : Yes

    Format settings, ReFrames : 2 frames

    Format settings, GOP : M=1, N=12

    Codec ID : V_MPEG4/ISO/AVC

    Duration : 1 h 32 min

    Bit rate mode : Constant

    Bit rate : 980 kb/s

    Width : 720 pixels

    Height : 304 pixels

    Display aspect ratio : 2.35:1

    Frame rate mode : Constant

    Frame rate : 29.970 (30000/1001) FPS

    Color space : YUV

    Chroma subsampling : 4:2:0

    Bit depth : 8 bits

    Scan type : Progressive

    Bits/(Pixel*Frame) : 0.149

    Stream size : 635 MiB (92%)

    Title : ☻rDX☻

    Default : Yes

    Forced : No

    Audio

    ID : 1

    Format : AC-3

    Format/Info : Audio Coding 3

    Mode extension : CM (complete main)

    Format settings, Endianness : Big

    Codec ID : A_AC3

    Duration : 1 h 32 min

    Bit rate mode : Constant

    Bit rate : 64.0 kb/s

    Channel(s) : 2 channels

    Channel positions : Front: L R

    Sampling rate : 44.1 kHz

    Frame rate : 28.711 FPS (1536 spf)

    Bit depth : 16 bits

    Compression mode : Lossy

    Stream size : 42.4 MiB (6%)

    Title : ☻rDX☻

    Default : Yes

    Forced : No

    https://www.imdb.com/title/tt2386490

    image


    More at ibit.to
    And ibit.uno
    And ibit.ws

    Reviews

    i got the pleasure of getting a sneak peek of this movie its pretty great i laughed out loud and really had feelings for the characters in this movie its a good choice for older kids i dont think however its a good idea for younger kids its more dark the villans more frightening then before the movie is good very good though

    The best dream-works movie yet for kids and <a hre="http://quizlets.co/">quizlet</a> teens !!! It has a great story, great animation and great characters here's my review: The story: 10/10 the animation: 10/10 and the characters: 10/10 the movie: 10/10!!!

    Comments

    Files

    Sample ~ How To Train Your Dragon 3 The Hidden World 2019 Movies HD Cam x264 Clean Audio New Source ☻rDX☻.mkv 14 MB
    How To Train Your Dragon 3 The Hidden World 2019 Movies HD Cam x264 Clean Audio New Source ☻rDX☻.mkv 691 MB

    Stream

    Downloading Seeding How To Train Your Dragon 3 The Hidden World 2019 Movies HD Cam x264 Clean Audio New Source with Sample ☻rDX☻ from to 0 peers.
    of
    0 b/s / ↗0 b/s