• 4
  • 3
  • 1,907
  • done
Sponsored Downloadondemand_video
68%

Hotel Transylvania 3: Summer Vacation (2018)

  • Family Fantasy Comedy Animation
  • Dracula, Mavis, Johnny and the rest of the Drac Pack take a vacation on a luxury Monster Cruise Ship, where Dracula falls in love with the ship’s captain, Ericka, who’s secretly a descendant of Abraham Van Helsing, the notorious monster slayer.

    expand_more
    English
  • $80,000,000
  • Description

    image

    **
    General

    Format : Matroska

    Format version : Version 4 / Version 2

    File size : 822 MiB

    Duration : 1 h 26 min

    Overall bit rate : 1 322 kb/s

    Video

    ID : 1

    Format : AVC

    Format/Info : Advanced Video Codec

    Format profile : [email protected]
    Format settings : CABAC / 4 Ref Frames

    Format settings, CABAC : Yes

    Format settings, RefFrames : 4 frames

    Codec ID : V_MPEG4/ISO/AVC

    Duration : 1 h 26 min

    Bit rate : 1 100 kb/s

    Width : 1 280 pixels

    Height : 650 pixels

    Display aspect ratio : 1.969

    Frame rate mode : Constant

    Frame rate : 30.000 FPS

    Color space : YUV

    Chroma subsampling : 4:2:0

    Bit depth : 8 bits

    Scan type : Progressive

    Bits/(Pixel*Frame) : 0.044

    Stream size : 681 MiB (83%)

    Writing library : x264 core 155 r2901 7d0ff22

    Default : Yes

    Forced : No

    Audio #1

    ID : 2

    Format : AAC

    Format/Info : Advanced Audio Codec

    Format profile : LC

    Codec ID : A_AAC-2

    Duration : 1 h 26 min

    Bit rate : 128 kb/s

    Channel(s) : 2 channels

    Channel positions : Front: L R

    Sampling rate : 48.0 kHz

    Frame rate : 46.875 FPS (1024 SPF)

    Compression mode : Lossy

    Stream size : 79.6 MiB (10%)

    Language : Hindi

    Default : Yes

    Forced : No

    Audio #2

    ID : 3

    Format : AAC

    Format/Info : Advanced Audio Codec

    Format profile : LC

    Codec ID : A_AAC-2

    Duration : 1 h 26 min

    Bit rate : 96.0 kb/s

    Channel(s) : 2 channels

    Channel positions : Front: L R

    Sampling rate : 48.0 kHz

    Frame rate : 46.875 FPS (1024 SPF)

    Compression mode : Lossy

    Stream size : 59.7 MiB (7%)

    Language : English

    Default : No

    Forced : No

    **

    Click To Enlarge Image

    image
    image
    image
    image
    image
    image
    image


    More at ibit.to
    And ibit.uno
    And ibit.ws

    Reviews

    Comments

    1 year ago

    This is the 1xBet.com print. Audio is not TS as title said, it is cam audio. That said, V8 A7 for a cam and smaller MB size compared to some.

    Files

    Hotel Transylvania 3 Summer Vacation 2018 720p HDTS x264 Dual Audio [Hindi - English] [MW].mkv 822 MB
    Hotel Transylvania 3 Summer Vacation 2018 720p HDTS x264 Du -

    Stream

    Downloading Seeding Hotel Transylvania 3 Summer Vacation 2018 720p HDTS x264 Dual Audio [Hindi - English] [MW] from to 0 peers.
    of
    0 b/s / ↗0 b/s