• 8
  • 2
  • 32
  • done
Sponsored Downloadondemand_video
68%

Hotel Transylvania 3: Summer Vacation (2018)

  • Family Fantasy Comedy Animation
  • Dracula, Mavis, Johnny and the rest of the Drac Pack take a vacation on a luxury Monster Cruise Ship, where Dracula falls in love with the ship’s captain, Ericka, who’s secretly a descendant of Abraham Van Helsing, the notorious monster slayer.

    expand_more
    English
  • $80,000,000
  • Description

    image
    **General

    Format : Matroska

    Format version : Version 4 / Version 2

    File size : 1.08 GiB

    Duration : 1 h 37 min

    Overall bit rate : 1 582 kb/s

    Video

    ID : 1

    Format : AVC

    Format/Info : Advanced Video Codec

    Format profile : [email protected]
    Format settings : CABAC / 4 Ref Frames

    Format settings, CABAC : Yes

    Format settings, RefFrames : 4 frames

    Codec ID : V_MPEG4/ISO/AVC

    Duration : 1 h 37 min

    Bit rate : 1 100 kb/s

    Width : 1 280 pixels

    Height : 692 pixels

    Display aspect ratio : 1.85:1

    Frame rate mode : Constant

    Frame rate : 23.976 (24000/1001) FPS

    Color space : YUV

    Chroma subsampling : 4:2:0

    Bit depth : 8 bits

    Scan type : Progressive

    Bits/(Pixel*Frame) : 0.052

    Stream size : 752 MiB (68%)

    Writing library : x264 core 155 r2901 7d0ff22

    Default : Yes

    Forced : No

    Audio #1

    ID : 2

    Format : AC-3

    Format/Info : Audio Coding 3

    Codec ID : A_AC3

    Duration : 1 h 37 min

    Bit rate mode : Constant

    Bit rate : 384 kb/s

    Channel(s) : 6 channels

    Channel positions : Front: L C R, Side: L R, LFE

    Sampling rate : 48.0 kHz

    Frame rate : 31.250 FPS (1536 SPF)

    Bit depth : 16 bits

    Compression mode : Lossy

    Stream size : 267 MiB (24%)

    Language : Hindi

    Service kind : Complete Main

    Default : Yes

    Forced : No

    Audio #2

    ID : 3

    Format : AAC

    Format/Info : Advanced Audio Codec

    Format profile : HE-AAC / LC

    Format settings : Explicit

    Codec ID : A_AAC-2

    Duration : 1 h 37 min

    Bit rate : 111 kb/s

    Channel(s) : 2 channels

    Channel positions : Front: L R

    Sampling rate : 48.0 kHz / 24.0 kHz

    Frame rate : 23.438 FPS (1024 SPF)

    Compression mode : Lossy

    Stream size : 77.1 MiB (7%)

    Language : English

    Default : No

    Forced : No

    Text

    ID : 4

    Format : VobSub

    Muxing mode : zlib

    Codec ID : S_VOBSUB

    Codec ID/Info : Picture based subtitle format used on DVDs

    Duration : 1 h 26 min

    Bit rate : 5 386 b/s

    Count of elements : 1098

    Stream size : 3.33 MiB (0%)

    Language : English

    Default : Yes

    Forced : No**

    Click To Enlarge Image

    image
    image
    image
    image
    image
    image


    More at ibit.to
    And ibit.uno
    And ibit.ws

    Reviews

    Comments

    Files

    Hotel Transylvania 3 Summer Vacation 2018 720p BluRay x264 Dual Audio [Hindi DD 5.1 - English 2.0] ESub [MW].mkv 1.1 GB
    Hotel Transylvania 3 Summer Vacation 2018 -

    Stream

    Downloading Seeding Hotel Transylvania 3 Summer Vacation 2018 720p BluRay x264 Dual Audio [Hindi DD 5.1 - English 2.0] ESub [MW] from to 0 peers.
    of
    0 b/s / ↗0 b/s