• 1
  • 0
  • 391
Anonymous Downloadondemand_video
  • Hope.Floats.1998.1080p.BluRay.H264.AAC-RARBG
  • 2.2 GB
  • TeXTX
  • Hope Floats 1998 1080p BluRay H264 RARBG
  • English
  • HD
Warning! Use a VPN When Downloading Torrents!
Your IP Address is ,
Your Internet Provider can see when you download torrents! Hide your IP ADDRESS with a VPN
We strongly recommend hide.me VPN to hide your torrenting. It's FREE!
DOWNLOAD VPN
61%

Hope Floats (1998)

  • Drama Romance Comedy
  • Birdee Pruitt has been humiliated on live television by her best friend, Connie, who's been sleeping with Birdee's husband, Bill. Birdee tries starting over with her daughter, Bernice, by returning to her small Texas hometown, but she's faced with petty old acquaintances who are thrilled to see Birdee unhappy -- except for her friend Justin. As he helps Birdee get back on her feet, love begins to blossom.

    expand_more
    English

    Description

    http://www.imdb.com/title/tt0119313/
    image
    image
    image
    image
    image

    [mediainfo]

    Video

    ID : 1

    Format : AVC

    Format/Info : Advanced Video Codec

    Format profile : [email protected]
    Format settings, CABAC : Yes

    Format settings, ReFrames : 4 frames

    Codec ID : avc1

    Codec ID/Info : Advanced Video Coding

    Duration : 1h 54mn

    Bit rate : 2 500 Kbps

    Width : 1 920 pixels

    Height : 1 040 pixels

    Display aspect ratio : 1.85:1

    Frame rate mode : Constant

    Frame rate : 23.976 fps

    Color space : YUV

    Chroma subsampling : 4:2:0

    Bit depth : 8 bits

    Scan type : Progressive

    Bits/(Pixel*Frame) : 0.052

    Stream size : 2.00 GiB (92%)

    Writing library : x264 core 144 r2525M 40bb568

    Encoding settings : cabac=1 / ref=4 / deblock=1:-1:-1 / analyse=0x3:0x113 / me=umh / subme=9 / psy=1 / psyrd=1.00:0.15 / mixedref=1 / merange=24 / chromame=1 / trellis=2 / 8x8dct=1 / cqm=0 / deadzone=21,11 / fastpskip=1 / chromaqpoffset=-3 / threads=32 / lookaheadthreads=4 / slicedthreads=0 / nr=0 / decimate=1 / interlaced=0 / bluraycompat=0 / constrainedintra=0 / bframes=3 / bpyramid=2 / badapt=1 / bbias=0 / direct=1 / weightb=1 / opengop=0 / weightp=2 / keyint=250 / keyintmin=25 / scenecut=40 / intrarefresh=0 / rclookahead=50 / rc=2pass / mbtree=1 / bitrate=2500 / ratetol=1.0 / qcomp=0.60 / qpmin=0 / qpmax=69 / qpstep=4 / cplxblur=20.0 / qblur=0.5 / vbvmaxrate=31250 / vbvbufsize=31250 / nalhrd=none / filler=0 / ipratio=1.40 / aq=3:1.00

    Encoded date : UTC 1904-01-01 00:00:00

    Tagged date : UTC 1904-01-01 00:00:00

    Audio

    ID : 2

    Format : AAC

    Format/Info : Advanced Audio Codec

    Format profile : LC

    Codec ID : 40

    Duration : 1h 54mn

    Bit rate mode : Constant

    Bit rate : 224 Kbps

    Channel(s) : 2 channels

    Channel(s)_Original : 6 channels

    Channel positions : Front: L C R, Side: L R, LFE

    Sampling rate : 48.0 KHz

    Compression mode : Lossy

    Stream size : 183 MiB (8%)

    Language : English

    Encoded date : UTC 1904-01-01 00:00:00

    Tagged date : UTC 1904-01-01 00:00:00

    [/mediainfo]


    More at ibit.to
    And ibit.uno
    And ibit.am
    And ibit.ws

    Reviews

    Comments

    Files

    Hope.Floats.1998.1080p.BluRay.H264.AAC-RARBG.mp4 2.2 GB
    Hope.Floats.1998.1080p.BluRay.H264.AAC-RARBG.nfo 3.8 kB
    RARBG.COM.mp4 993 kB
    RARBG.COM.txt -
    Subs/English-subtitles.srt 110 kB

    Stream

    Downloading Seeding Hope.Floats.1998.1080p.BluRay.H264.AAC-RARBG from to 0 peers.
    of
    0 b/s / ↗0 b/s