• 0
  • 0
  • 2,273
  • done
Sponsored Downloadondemand_video
72%

Home Alone (1990)

  • Comedy Family
  • Eight-year-old Kevin McCallister makes the most of the situation after his family unwittingly leaves him behind when they go on Christmas vacation. But when a pair of bungling burglars set their sights on Kevin's house, the plucky kid stands ready to defend his territory. By planting booby traps galore, adorably mischievous Kevin stands his ground as his frantic mother attempts to race home before Christmas Day.

    expand_more
    English
  • $18,000,000
  • Description

    Home Alone - Mamma Ho Perso L'Aereo (1990).BRrip.XviD - Italian English.Ac3 - 5.1 - Sub.Ita.Eng.MIRCrew

    **image

    **

    ** NO FOUND ONLY ORIGINAL RELEASE **

    **

    Mamma Ho Perso L'Aereo - Home Alone (1990)

    image

    image

    image

    Titolo originale:Home Alone

    Nazione:USA

    Anno di produzione:1990

    Cast:Macaulay Culkin, Joe Pesci, Daniel Stern, John Heard, Robert Blossom.

    Regia:Chris Columbus

    Genere:Commedia

    Durata:102 min

    image

    Macaulay Culkin: Kevin McCallister

    Joe Pesci: Harry Lime

    Daniel Stern: Marv Merchants

    Catherine O'Hara: Kate McCallister

    Roberts Blossom: vecchio Marley

    John Heard: Peter McCallister

    John Candy: Gus Polinski

    Devin Ratray: Buzz McCallister

    Angela Goethals: Linnie McCallister

    Michael C. Maronna: Jeff McCallister

    Hillary Wolf: Megan McCallister

    Gerry Bamman: zio Frank McCallister

    Terrie Snell: zia Leslie McCallister

    Kieran Culkin: Fuller McCallister

    Kristin Minter: Heather McCallister

    Dan Charles Zukoski: fattorino delle pizze

    Bill Erwin: Ed

    Larry Hankin: sergente Larry Balzak

    ..........................

    image.

    Nella fretta di prendere l'aereo diretto a Parigi dove vogliono passare le vacanze di Natale, i McCallister, famiglia numerosa, dimenticano Kevin di otto anni a casa. Due malviventi cercano di entrare nella villetta per fare razzia. Peggio per loro.......................

    image

    An 8-year old troublemaker must protect his home from a pair of burglars when he is accidentally left home alone by his family during Christmas vacation..........

    image
    image
    image

    image

    image

    image

    [spoiler]

    General

    Complete name : Mamma Ho Perso L'Aereo - Home Alone (1990).ita.eng.sub.ita.eng.MIRCrewMamma Ho Perso L'Aereo - Home Alone (1990).ita.eng.sub.ita.eng.MIRCrew.avi

    Format : AVI

    Format/Info : Audio Video Interleave

    File size : 1.73 GiB

    Duration : 1h 42mn

    Overall bit rate : 2 405 Kbps

    Writing application : VirtualDubMod 1.5.10.2 (build 2540/release)

    Writing library : VirtualDubMod build 2540/release

    Video

    ID : 0

    Format : MPEG-4 Visual

    Format profile : [email protected]
    Format settings, BVOP : No

    Format settings, QPel : No

    Format settings, GMC : No warppoints

    Format settings, Matrix : Default (H.263)

    Codec ID : XVID

    Codec ID/Hint : XviD

    Duration : 1h 42mn

    Bit rate : 1 495 Kbps

    Width : 720 pixels

    Height : 386 pixels

    Display aspect ratio : 16:9

    Frame rate : 23.976 fps

    Color space : YUV

    Chroma subsampling : 4:2:0

    Bit depth : 8 bits

    Scan type : Progressive

    Compression mode : Lossy

    Bits/(Pixel*Frame) : 0.224

    Stream size : 1.07 GiB (62%)

    Writing library : XviD 65

    Audio #1

    ID : 1

    Format : AC-3

    Format/Info : Audio Coding 3

    Mode extension : CM (complete main)

    Codec ID : 2000

    Duration : 1h 42mn

    Bit rate mode : Constant

    Bit rate : 448 Kbps

    Channel(s) : 6 channels

    Channel positions : Front: L C R, Side: L R, LFE

    Sampling rate : 48.0 KHz

    Bit depth : 16 bits

    Compression mode : Lossy

    Stream size : 330 MiB (19%)

    Alignment : Split accross interleaves

    Interleave, duration : 42 ms (1.00 video frame)

    Interleave, preload duration : 500 ms

    Audio #2

    ID : 2

    Format : AC-3

    Format/Info : Audio Coding 3

    Mode extension : CM (complete main)

    Codec ID : 2000

    Duration : 1h 42mn

    Bit rate mode : Constant

    Bit rate : 448 Kbps

    Channel(s) : 6 channels

    Channel positions : Front: L C R, Side: L R, LFE

    Sampling rate : 48.0 KHz

    Bit depth : 16 bits

    Compression mode : Lossy

    Stream size : 330 MiB (19%)

    Alignment : Split accross interleaves

    Interleave, duration : 42 ms (1.00 video frame)

    Interleave, preload duration : 500 ms

    [/spoiler]

    **


    More at ibit.to
    And ibit.uno
    And ibit.ws

    Reviews

    Comments

    Files

    Mamma Ho Perso L'Aereo - Home Alone (1990).ita.eng.sub.ita.eng.MIRCrew.avi 1.7 GB
    Mamma Ho Perso L'Aereo - Home Alone (1990).ita.eng.sub.ita.eng.MIRCrew.eng.idx 45 kB
    Mamma Ho Perso L'Aereo - Home Alone (1990).ita.eng.sub.ita.eng.MIRCrew.eng.sub 6.5 MB
    Mamma Ho Perso L'Aereo - Home Alone (1990).ita.eng.sub.ita.eng.MIRCrew.idx 800 B
    Mamma Ho Perso L'Aereo - Home Alone (1990).ita.eng.sub.ita.eng.MIRCrew.ita.idx 45 kB
    Mamma Ho Perso L'Aereo - Home Alone (1990).ita.eng.sub.ita.eng.MIRCrew.ita.sub 6.6 MB
    Mamma Ho Perso L'Aereo - Home Alone (1990).ita.eng.sub.ita.eng.MIRCrew.sub 50 kB
    Mamma Ho Perso L'Aereo - Home Alone (1990).ita.eng.sub.ita.eng.MIRCrew/Mamma Ho Perso L'Aereo Home Alone (1990).ita.eng.sub.ita.eng.MIRCrew -
    Mamma Ho Perso L'Aereo - Home Alone (1990).ita.eng.sub.ita.eng.MIRCrew/Mamma Ho Perso L'Aereo Home Alone (1990).ita.eng.sub.ita.eng.MIRCrew.avi 1.7 GB
    Mamma Ho Perso L'Aereo - Home Alone (1990).ita.eng.sub.ita.eng.MIRCrew/Mamma Ho Perso L'Aereo Home Alone (1990).ita.eng.sub.ita.eng.MIRCrew.eng.idx 45 kB
    Mamma Ho Perso L'Aereo - Home Alone (1990).ita.eng.sub.ita.eng.MIRCrew/Mamma Ho Perso L'Aereo Home Alone (1990).ita.eng.sub.ita.eng.MIRCrew.eng.sub 6.5 MB
    Mamma Ho Perso L'Aereo - Home Alone (1990).ita.eng.sub.ita.eng.MIRCrew/Mamma Ho Perso L'Aereo Home Alone (1990).ita.eng.sub.ita.eng.MIRCrew.idx 780 B
    Mamma Ho Perso L'Aereo - Home Alone (1990).ita.eng.sub.ita.eng.MIRCrew/Mamma Ho Perso L'Aereo Home Alone (1990).ita.eng.sub.ita.eng.MIRCrew.ita.idx 45 kB
    Mamma Ho Perso L'Aereo - Home Alone (1990).ita.eng.sub.ita.eng.MIRCrew/Mamma Ho Perso L'Aereo Home Alone (1990).ita.eng.sub.ita.eng.MIRCrew.ita.sub 6.6 MB
    Mamma Ho Perso L'Aereo - Home Alone (1990).ita.eng.sub.ita.eng.MIRCrew/Mamma Ho Perso L'Aereo Home Alone (1990).ita.eng.sub.ita.eng.MIRCrew.sub 50 kB

    Stream

    Downloading Seeding Home Alone - Mamma Ho Perso L'Aereo (1990).BRrip.XviD - Italian English.Ac3 - 5.1 - Sub.Ita.Eng.MIRCrew from to 0 peers.
    of
    0 b/s / ↗0 b/s