• 1
  • 0
Anonymous Downloadondemand_video
  • Highway To Heaven DVDrip S02E09 The Secret.avi
  • 403 MB
  • artsubs
  • Highway Heaven DVDrip S02E09 Secret avi
  • English
  • SD/XVID
Warning! Use a VPN When Downloading Torrents!
Your IP Address is ,
Your Internet Provider can see when you download torrents! Hide your IP ADDRESS with a VPN
We strongly recommend Trust.Zone VPN to hide your torrenting. It's FREE!
DOWNLOAD VPN
64%

Highway to Heaven: The Secret(1985)

  • 2 9
  • Sci-Fi & Fantasy Drama Family
  • While on their way to visit Mark's friends, Jonathan lashes back at some bullies. Because of this, Jonathan gets recalled. When Mark reaches his friends, he inadvertently slips out a bit of info that leads his friends to reveal to their eldest daughter that she was adopted. She then sets out fo find her birth mother. She then discovers that her adopted mother is her birth mother. It seems that years ago, she got pregnant and her aunt, who was her guardian forced her into putting her baby up for adoption. When she married her husband, she told him that she couldn't have children, so they adopted her. And when their second daughter was born she said it was a miracle. The husband upon hearing of this decides to leave her and the younger daughter joins him. Mark tries to help him but he refuses. Later Jonathan appears to Mark and tells him to go somewhere, and it turns out to be at an abortion clinic, and Mark's friend arrests the protesters. When he tells Mark that he agrees with what the

    English

    Description

    Release: Highway To Heaven DVDrip S02E09 The Secret

    image

    IMDB: https://www.imdb.com/title/tt0086730

    Plot: A probationary angel, sent back to Earth, teams with an ex-cop to help people. Serie with Michael Landon.

    **General

    Complete name                            : Highway To Heaven DVDrip S02E09 The Secret

    Format                                   : AVI

    Format/Info                              : Audio Video Interleave

    File size                                : 403 MiB

    Duration                                 : 45mn 24s

    Overall bit rate                         : 1 240 Kbps

    Video

    ID                                       : 0

    Format                                   : MPEG-4 Visual

    Format settings, BVOP                    : 1

    Format settings, QPel                    : No

    Format settings, GMC                     : No warppoints

    Format settings, Matrix                  : Default (H.263)

    Muxing mode                              : Packed bitstream

    Codec ID                                 : DX50

    Codec ID/Hint                            : DivX 5

    Duration                                 : 45mn 24s

    Bit rate                                 : 1 101 Kbps

    Width                                    : 672 pixels

    Height                                   : 496 pixels

    Display aspect ratio                     : 4:3

    Frame rate                               : 29.970 fps

    Color space                              : YUV

    Chroma subsampling                       : 4:2:0

    Bit depth                                : 8 bits

    Scan type                                : Progressive

    Compression mode                         : Lossy

    Bits/(Pixel*Frame)                       : 0.110

    Stream size                              : 357 MiB (89%)

    Title                                    : Video 

    Writing library                          : DivX 6.6.1.4

    Audio

    ID                                       : 1

    Format                                   : MPEG Audio

    Format version                           : Version 1

    Format profile                           : Layer 3

    Mode                                     : Dual mono

    Codec ID                                 : 55

    Codec ID/Hint                            : MP3

    Duration                                 : 45mn 24s

    Bit rate mode                            : Constant

    Bit rate                                 : 128 Kbps

    Channel count                            : 2 channels

    Sampling rate                            : 48.0 KHz

    Compression mode                         : Lossy

    Stream size                              : 41.6 MiB (10%)

    Alignment                                : Split accross interleaves

    Interleave, duration                     : 33 ms (1.00 video frame)

    Interleave, preload duration             : 500 ms

    Title                                    : Audio 

    Writing library                          : LAME3.92**

    SCREENSHOTS:

    image

    image

    image

    image


    More at ibit.to
    And ibit.uno
    And ibit.ws

    Reviews

    Comments

    Files

    Highway To Heaven DVDrip S02E09 The Secret.avi 403 MB

    Stream

    Downloading Seeding Highway To Heaven DVDrip S02E09 The Secret.avi from to 0 peers.
    of
    0 b/s / ↗0 b/s