• 0
  • 0
Anonymous Downloadondemand_video
  • Highway To Heaven DVDrip S02E03 Bless The Boys In Blue.avi
  • 400 MB
  • artsubs
  • Highway Heaven DVDrip S02E03 Bless Boys Blue avi
  • English
  • SD/XVID
Warning! Use a VPN When Downloading Torrents!
Your IP Address is ,
Your Internet Provider can see when you download torrents! Hide your IP ADDRESS with a VPN
We strongly recommend Trust.Zone VPN to hide your torrenting. It's FREE!
DOWNLOAD VPN
64%

Highway to Heaven: Bless the Boys in Blue(1985)

  • 2 3
  • Sci-Fi & Fantasy Drama Family
  • Mark asks God to make Jonathan a cop for while. After 40 years Jonathan becomes human only to realize only to realize the harsh realities of being a policeman. Also Jonathan helps a police officer rid himself of his guilt after shooting a teenager while the teenager had an empty gun. When the police officer holds people hostage the father of the slain teenager tells why there were no bullets in see the gun his son was carrying.

    English

    Description

    Release: Highway To Heaven DVDrip S02E03 Bless The Boys In Blue

    image

    IMDB: https://www.imdb.com/title/tt0086730

    Plot: A probationary angel, sent back to Earth, teams with an ex-cop to help people. Serie with Michael Landon.

    **General

    Complete name                            : Highway To Heaven DVDrip S02E03 Bless The Boys In Blue

    Format                                   : AVI

    Format/Info                              : Audio Video Interleave

    File size                                : 400 MiB

    Duration                                 : 45mn 3s

    Overall bit rate                         : 1 240 Kbps

    Video

    ID                                       : 0

    Format                                   : MPEG-4 Visual

    Format settings, BVOP                    : 1

    Format settings, QPel                    : No

    Format settings, GMC                     : No warppoints

    Format settings, Matrix                  : Default (H.263)

    Muxing mode                              : Packed bitstream

    Codec ID                                 : DX50

    Codec ID/Hint                            : DivX 5

    Duration                                 : 45mn 3s

    Bit rate                                 : 1 101 Kbps

    Width                                    : 668 pixels

    Height                                   : 496 pixels

    Display aspect ratio                     : 4:3

    Frame rate                               : 29.970 fps

    Color space                              : YUV

    Chroma subsampling                       : 4:2:0

    Bit depth                                : 8 bits

    Scan type                                : Progressive

    Compression mode                         : Lossy

    Bits/(Pixel*Frame)                       : 0.111

    Stream size                              : 355 MiB (89%)

    Title                                    : Video 

    Writing library                          : DivX 6.6.1.4

    Audio

    ID                                       : 1

    Format                                   : MPEG Audio

    Format version                           : Version 1

    Format profile                           : Layer 3

    Mode                                     : Dual mono

    Codec ID                                 : 55

    Codec ID/Hint                            : MP3

    Duration                                 : 45mn 3s

    Bit rate mode                            : Constant

    Bit rate                                 : 128 Kbps

    Channel count                            : 2 channels

    Sampling rate                            : 48.0 KHz

    Compression mode                         : Lossy

    Stream size                              : 41.3 MiB (10%)

    Alignment                                : Split accross interleaves

    Interleave, duration                     : 33 ms (1.00 video frame)

    Interleave, preload duration             : 500 ms

    Title                                    : Audio**

    SCREENSHOTS:

    image

    image

    image

    image


    More at ibit.to
    And ibit.uno
    And ibit.ws

    Reviews

    Comments

    Files

    Highway To Heaven DVDrip S02E03 Bless The Boys In Blue.avi 400 MB

    Stream

    Downloading Seeding Highway To Heaven DVDrip S02E03 Bless The Boys In Blue.avi from to 0 peers.
    of
    0 b/s / ↗0 b/s