• 0
  • 0
Anonymous Downloadondemand_video
  • Highway To Heaven DVDrip S01E16-Going Home, Going Home.avi
  • 400 MB
  • artsubs
  • Highway Heaven DVDrip S01E16 Going Home avi
  • English
  • SD/XVID
Warning! Use a VPN When Downloading Torrents!
Your IP Address is ,
Your Internet Provider can see when you download torrents! Hide your IP ADDRESS with a VPN
We strongly recommend Trust.Zone VPN to hide your torrenting. It's FREE!
DOWNLOAD VPN
64%

Highway to Heaven: Going Home, Going Home(1985)

  • 1 16
  • Sci-Fi & Fantasy Drama Family
  • Mark gets a chance to go back in time to tell his grandfather that he loved him. Mark also gets to help his grandfather said his farm for repossession but he must get Mark Jr. to tell his grandfather that he loves him and would rather stay with him.

    English

    Description

    Release: Highway To Heaven DVDrip S01E16-Going Home, Going Home

    image

    IMDB: https://www.imdb.com/title/tt0086730

    Plot: A probationary angel, sent back to Earth, teams with an ex-cop to help people. Serie with Michael Landon.

    **General

    Complete name                            : Highway To Heaven DVDrip S01E16-Going Home, Going Home

    Format                                   : AVI

    Format/Info                              : Audio Video Interleave

    File size                                : 400 MiB

    Duration                                 : 45mn 8s

    Overall bit rate                         : 1 240 Kbps

    Video

    ID                                       : 0

    Format                                   : MPEG-4 Visual

    Format settings, BVOP                    : 1

    Format settings, QPel                    : No

    Format settings, GMC                     : No warppoints

    Format settings, Matrix                  : Default (H.263)

    Muxing mode                              : Packed bitstream

    Codec ID                                 : DX50

    Codec ID/Hint                            : DivX 5

    Duration                                 : 45mn 8s

    Bit rate                                 : 1 100 Kbps

    Width                                    : 672 pixels

    Height                                   : 496 pixels

    Display aspect ratio                     : 4:3

    Frame rate                               : 29.970 fps

    Color space                              : YUV

    Chroma subsampling                       : 4:2:0

    Bit depth                                : 8 bits

    Scan type                                : Progressive

    Compression mode                         : Lossy

    Bits/(Pixel*Frame)                       : 0.110

    Stream size                              : 355 MiB (89%)

    Title                                    : Video 

    Writing library                          : DivX 6.6.1.4

    Audio

    ID                                       : 1

    Format                                   : MPEG Audio

    Format version                           : Version 1

    Format profile                           : Layer 3

    Mode                                     : Dual mono

    Codec ID                                 : 55

    Codec ID/Hint                            : MP3

    Duration                                 : 45mn 8s

    Bit rate mode                            : Constant

    Bit rate                                 : 128 Kbps

    Channel count                            : 2 channels

    Sampling rate                            : 48.0 KHz

    Compression mode                         : Lossy

    Stream size                              : 41.3 MiB (10%)

    Alignment                                : Split accross interleaves

    Interleave, duration                     : 33 ms (1.00 video frame)

    Interleave, preload duration             : 500 ms

    Title                                    : Audio 

    Writing library                          : LAME3.92**

    SCREENSHOTS:

    image

    image

    image

    image


    More at ibit.to
    And ibit.uno
    And ibit.ws

    Reviews

    Comments

    Files

    Highway To Heaven DVDrip S01E16-Going Home, Going Home.avi 400 MB

    Stream

    Downloading Seeding Highway To Heaven DVDrip S01E16-Going Home, Going Home.avi from to 0 peers.
    of
    0 b/s / ↗0 b/s