• 1
  • 0
Anonymous Downloadondemand_video
  • Highway To Heaven DVDrip S01E14 Plane Death
  • 401 MB
  • noriegaRJ
  • Highway Heaven DVDrip S01E14 Plane Death
  • English
  • DVD
Warning! Use a VPN When Downloading Torrents!
Your IP Address is ,
Your Internet Provider can see when you download torrents! Hide your IP ADDRESS with a VPN
We strongly recommend Trust.Zone VPN to hide your torrenting. It's FREE!
DOWNLOAD VPN
64%

Highway to Heaven: Plane Death(1985)

  • 1 14
  • Sci-Fi & Fantasy Drama Family
  • Mark hopes that he and Jonathan don't have assignment so they can visit Charlie Down who worked on the police force with Mark. What was supposed to be a happy time with a friend turned into finding out why he went missing for five days. Charlie down worked with border enforcement to try and stop drugs. Mark and Jonathan soon discover where Charlie is they find out that Jack Harm shot Charlie because he found cocaine in a model airplane.

    English

    Description

    Release: Highway To Heaven DVDrip S01E14 Plane Death

    image

    IMDB: https://www.imdb.com/title/tt0086730

    Plot: A probationary angel, sent back to Earth, teams with an ex-cop to help people. Serie with Michael Landon.

    **General

    Complete name : H:FilmesHighway To Heaven DVDrip S01E14 Plane Death.avi

    Format : AVI

    Format/Info : Audio Video Interleave

    File size : 401 MiB

    Duration : 45mn 15s

    Overall bit rate : 1 240 Kbps

    Video

    ID : 0

    Format : MPEG-4 Visual

    Format settings, BVOP : 1

    Format settings, QPel : No

    Format settings, GMC : No warppoints

    Format settings, Matrix : Default (H.263)

    Muxing mode : Packed bitstream

    Codec ID : DX50

    Codec ID/Hint : DivX 5

    Duration : 45mn 15s

    Bit rate : 1 101 Kbps

    Width : 672 pixels

    Height : 496 pixels

    Display aspect ratio : 4:3

    Frame rate : 29.970 fps

    Color space : YUV

    Chroma subsampling : 4:2:0

    Bit depth : 8 bits

    Scan type : Progressive

    Compression mode : Lossy

    Bits/(Pixel*Frame) : 0.110

    Stream size : 356 MiB (89%)

    Title : Video
    Writing library : DivX 6.6.1.4

    Audio

    ID : 1

    Format : MPEG Audio

    Format version : Version 1

    Format profile : Layer 3

    Mode : Dual mono

    Codec ID : 55

    Codec ID/Hint : MP3

    Duration : 45mn 15s

    Bit rate mode : Constant

    Bit rate : 128 Kbps

    Channel count : 2 channels

    Sampling rate : 48.0 KHz

    Compression mode : Lossy

    Stream size : 41.4 MiB (10%)

    Alignment : Split accross interleaves

    Interleave, duration : 33 ms (1.00 video frame)

    Interleave, preload duration : 500 ms

    Title : Audio
    Writing library : LAME3.92**

    SCREENSHOTS:

    image
    image
    image
    image


    More at ibit.to
    And ibit.uno
    And ibit.ws

    Reviews

    Comments

    Files

    Highway To Heaven DVDrip S01E14 Plane Death.avi 401 MB

    Stream

    Downloading Seeding Highway To Heaven DVDrip S01E14 Plane Death from to 0 peers.
    of
    0 b/s / ↗0 b/s