• 1
  • 0
Anonymous Downloadondemand_video
  • Highway To Heaven DVDrip S01E08 A Divine Madness
  • 401 MB
  • noriegaRJ
  • Highway Heaven DVDrip S01E08 Divine Madness
  • English
  • Divx/Xvid
Warning! Use a VPN When Downloading Torrents!
Your IP Address is ,
Your Internet Provider can see when you download torrents! Hide your IP ADDRESS with a VPN
We strongly recommend Trust.Zone VPN to hide your torrenting. It's FREE!
DOWNLOAD VPN
64%

Highway to Heaven: A Divine Madness(1984)

  • 1 8
  • Sci-Fi & Fantasy Drama Family
  • Jonathan and Mark have started their assignment by meeting with one of the people that Crock Jr. wants to bulldoze, a sweet middle-aged lady named Gwen,who runs a veterinary clinic. Jonathan convinces Gwen to go with him to plead her case before Mr. Crock. Poor Gwen is nearly scared out of her wits when she meets 'King Arthur' and is ranted at for being an invader to his realm. Jonathan very smoothly convinces the man that he is a humble subject of the realm who has accompanied the Lady Guinevere, who wishes to petition her liege. The king promptly knights Jonathan and accepts the petition, stunning the lady again by offering his loving heart to her.

    English

    Description

    Release: Highway To Heaven DVDrip S01E08 A Divine Madness

    image

    IMDB: https://www.imdb.com/title/tt0086730

    Plot: A probationary angel, sent back to Earth, teams with an ex-cop to help people. Serie with Michael Landon.

    **General

    Complete name                            : Highway To Heaven DVDrip S01E08 A Divine Madness.avi

    Format                                   : AVI

    Format/Info                              : Audio Video Interleave

    File size                                : 401 MiB

    Duration                                 : 45 min 13 s

    Overall bit rate                         : 1 240 kb/s

    Video

    ID                                       : 0

    Format                                   : MPEG-4 Visual

    Format settings                          : BVOP1

    Format settings, BVOP                    : 1

    Format settings, QPel                    : No

    Format settings, GMC                     : No warppoints

    Format settings, Matrix                  : Default (H.263)

    Muxing mode                              : Packed bitstream

    Codec ID                                 : DX50

    Codec ID/Hint                            : DivX 5

    Duration                                 : 45 min 13 s

    Bit rate                                 : 1 100 kb/s

    Nominal bit rate                         : 4 854 kb/s

    Width                                    : 668 pixels

    Height                                   : 496 pixels

    Display aspect ratio                     : 4:3

    Frame rate                               : 29.970 (30000/1001) FPS

    Color space                              : YUV

    Chroma subsampling                       : 4:2:0

    Bit depth                                : 8 bits

    Scan type                                : Progressive

    Compression mode                         : Lossy

    Bits/(Pixel*Frame)                       : 0.111

    Stream size                              : 356 MiB (89%)

    Title                                    : Video
    Writing library                          : DivX 6.6.1.4

    Audio

    ID                                       : 1

    Format                                   : MPEG Audio

    Format version                           : Version 1

    Format profile                           : Layer 3

    Format settings                          : Dual mono

    Codec ID                                 : 55

    Codec ID/Hint                            : MP3

    Duration                                 : 45 min 13 s

    Bit rate mode                            : Constant

    Bit rate                                 : 128 kb/s

    Channel(s)                               : 2 channels

    Sampling rate                            : 48.0 kHz

    Compression mode                         : Lossy

    Stream size                              : 41.4 MiB (10%)

    Alignment                                : Split accross interleaves

    Interleave, duration                     : 33  ms (1.00 video frame)

    Interleave, preload duration             : 500  ms

    Title                                    : Audio**

    SCREENSHOTS:

    image
    image
    image
    image


    More at ibit.to
    And ibit.uno
    And ibit.ws

    Reviews

    Comments

    Files

    Highway To Heaven DVDrip S01E08 A Divine Madness.avi 401 MB

    Stream

    Downloading Seeding Highway To Heaven DVDrip S01E08 A Divine Madness from to 0 peers.
    of
    0 b/s / ↗0 b/s