• 0
  • 0
Anonymous Downloadondemand_video
  • Highway To Heaven DVDrip S01E05 Song Of The Wild West
  • 401 MB
  • noriegaRJ
  • Highway Heaven DVDrip S01E05 Song Wild West
  • English
  • DVD
Warning! Use a VPN When Downloading Torrents!
Your IP Address is ,
Your Internet Provider can see when you download torrents! Hide your IP ADDRESS with a VPN
We strongly recommend hide.me VPN to hide your torrenting. It's FREE!
DOWNLOAD VPN
64%

Highway to Heaven: Song of the Wild West(1984)

  • 1 5
  • Sci-Fi & Fantasy Drama Family
  • The guys' latest assignment is reunite a broken family. Evelyn Higgins left her husband Tim and baby daughter Sarah in search of a career in music and Tim never forgave her for it, even going as far as telling their daughter that her mother has died. Evelyn had a fairly successful career after changing her name to Patsy Maynard, but guilt and sorrow over her past life have led her to become a lush and a has-been who can only get gigs playing small honkey-tonk bars. She is set to play one such place right outside her old hometown and her daughter eagerly comes to see her, having no idea that the singer is her mother. Sarah shares her mother's love of music and wants to be a professional country singer, against the wishes of her father who fears losing his daughter the same way he lost his wife. Jonathan and Mark go to work in the bar/casino where Patsy sings. Through a little investigative work, Mark discovers that the owner of the place is a crook who is rigging every game. Jonathan fi

    English

    Description

    Release: Highway To Heaven DVDrip S01E05 Song Of The Wild West

    image

    IMDB: https://www.imdb.com/title/tt0086730

    Plot: A probationary angel, sent back to Earth, teams with an ex-cop to help people. Serie with Michael Landon.

    **General

    Complete name : Highway To Heaven DVDrip S01E05 Song Of The Wild West

    Format : AVI

    Format/Info : Audio Video Interleave

    File size : 401 MiB

    Duration : 45mn 14s

    Overall bit rate : 1 240 Kbps

    Video

    ID : 0

    Format : MPEG-4 Visual

    Format settings, BVOP : 1

    Format settings, QPel : No

    Format settings, GMC : No warppoints

    Format settings, Matrix : Default (H.263)

    Muxing mode : Packed bitstream

    Codec ID : DX50

    Codec ID/Hint : DivX 5

    Duration : 45mn 14s

    Bit rate : 1 101 Kbps

    Width : 672 pixels

    Height : 496 pixels

    Display aspect ratio : 4:3

    Frame rate : 29.970 fps

    Color space : YUV

    Chroma subsampling : 4:2:0

    Bit depth : 8 bits

    Scan type : Progressive

    Compression mode : Lossy

    Bits/(Pixel*Frame) : 0.110

    Stream size : 356 MiB (89%)

    Title : Video
    Writing library : DivX 6.6.1.4

    Audio

    ID : 1

    Format : MPEG Audio

    Format version : Version 1

    Format profile : Layer 3

    Mode : Dual mono

    Codec ID : 55

    Codec ID/Hint : MP3

    Duration : 45mn 14s

    Bit rate mode : Constant

    Bit rate : 128 Kbps

    Channel count : 2 channels

    Sampling rate : 48.0 KHz

    Compression mode : Lossy

    Stream size : 41.4 MiB (10%)

    Alignment : Split accross interleaves

    Interleave, duration : 33 ms (1.00 video frame)

    Interleave, preload duration : 500 ms

    Title : Audio**

    SCREENSHOTS:

    image
    image
    image
    image
    image
    image


    More at ibit.to
    And ibit.uno
    And ibit.ws

    Reviews

    Comments

    Files

    Highway To Heaven DVDrip S01E05 Song Of The Wild West.avi 401 MB

    Stream

    Downloading Seeding Highway To Heaven DVDrip S01E05 Song Of The Wild West from to 0 peers.
    of
    0 b/s / ↗0 b/s