• 0
  • 0
  • 2
Anonymous Downloadondemand_video
  • Highway To Heaven DVDrip S01E01E02 Part2
  • 401 MB
  • noriegaRJ
  • Highway Heaven DVDrip S01E01E02 Part2
  • English
  • DVD
Warning! Use a VPN When Downloading Torrents!
Your IP Address is ,
Your Internet Provider can see when you download torrents! Hide your IP ADDRESS with a VPN
We strongly recommend Trust.Zone VPN to hide your torrenting. It's FREE!
DOWNLOAD VPN
64%

Highway to Heaven: Highway to Heaven (1)(1984)

  • 1 1
  • Sci-Fi & Fantasy Drama Family
  • In this, the pilot movie for the series, we meet Jonathan Smith walking slowly down a lonely road toward an unknown destination. He flags down a passing truck and asks for a ride from the old man driving. The man refuses and drives on, only to have his truck engine blow before he gets more than a few yards down the road. Jonathan obligingly does a little quick mechanic work on the vehicle and tells him to have a nice day. The man hastily changes his mind and offers a ride. With this scene, the theme of the entire series is set into motion. Stangers help strangers, people do good for one another, the forgotten and lonely are given a new purpose in life, and the world becomes just a little bit better place. In this case, Jonathan's destination is a retirement home called Havencrest, where he takes on the recently vacated job of handyman. It seems no one wants the job because the home is on the verge of being sold out from under the residents, leaving most of them nowhere to go.

    English

    Description

    Release: Highway To Heaven DVDrip S01E01E02 Part2

    image

    IMDB: https://www.imdb.com/title/tt0086730

    Plot: A probationary angel, sent back to Earth, teams with an ex-cop to help people. Serie with Michael Landon.

    **General

    Complete name : Highway To Heaven DVDrip S01E01E02 Part2

    Format : AVI

    Format/Info : Audio Video Interleave

    File size : 401 MiB

    Duration : 45mn 12s

    Overall bit rate : 1 240 Kbps

    Video

    ID : 0

    Format : MPEG-4 Visual

    Format settings, BVOP : 1

    Format settings, QPel : No

    Format settings, GMC : No warppoints

    Format settings, Matrix : Default (H.263)

    Muxing mode : Packed bitstream

    Codec ID : DX50

    Codec ID/Hint : DivX 5

    Duration : 45mn 12s

    Bit rate : 1 101 Kbps

    Width : 672 pixels

    Height : 496 pixels

    Display aspect ratio : 4:3

    Frame rate : 29.970 fps

    Color space : YUV

    Chroma subsampling : 4:2:0

    Bit depth : 8 bits

    Scan type : Progressive

    Compression mode : Lossy

    Bits/(Pixel*Frame) : 0.110

    Stream size : 356 MiB (89%)

    Title : Video
    Writing library : DivX 6.6.1.4

    Audio

    ID : 1

    Format : MPEG Audio

    Format version : Version 1

    Format profile : Layer 3

    Mode : Dual mono

    Codec ID : 55

    Codec ID/Hint : MP3

    Duration : 45mn 12s

    Bit rate mode : Constant

    Bit rate : 128 Kbps

    Channel count : 2 channels

    Sampling rate : 48.0 KHz

    Compression mode : Lossy

    Stream size : 41.4 MiB (10%)

    Alignment : Split accross interleaves

    Interleave, duration : 33 ms (1.00 video frame)

    Interleave, preload duration : 500 ms

    Title : Audio**

    SCREENSHOTS:

    image
    image
    image
    image
    image


    More at ibit.to
    And ibit.uno
    And ibit.ws

    Reviews

    Comments

    Files

    Highway To Heaven DVDrip S01E01E02 Part2.avi 401 MB

    Stream

    Downloading Seeding Highway To Heaven DVDrip S01E01E02 Part2 from to 0 peers.
    of
    0 b/s / ↗0 b/s