• -
  • -
  • done
Download
  • Heidi: Girl of the Alps
  • 6.9 GB
  • игорь 25
  • Heidi Girl Alps
  • Аниме (HD Video)

Description

Хайди - девочка Альп / Heidi: Girl of the Alps / Alps no Shoujo Heidi

image

Страна : Япония

Год выпуска : 1974

Жанр : повседневность, исторический, драма

Тип : TV

Продолжительность : 52 эп, ~25 мин. серия

Режиссер : Такахата Исао

Студия : Zuiyo Eizo

Описание : Девочка Хайди после смерти родителей попадает на воспитание к своей тёте Дет, которая заботилась о ней до пятилетнего возраста. Но сейчас тётя Дет нашла работу во Франкфурте и девочка начинает мешать ей обустраивать собственную жизнь. Тётя отвозит Хайди жить на Альпийские горы к дедушке, внешне суровому и сварливому, но в душе неплохому старику. Своей добротой, непосредственностью и открытостью к миру вокруг себя, Хайди растопила сердце деду, и он по-настоящему полюбил внучку. В своём новом доме Хайди учится любить горы, природу, дружить с животными и цветами, и, самое главное, согревать сердца всех людей вокруг. И это главное она проносит через свою жизнь, становясь старше. Но всё это только самое начало того, через что пришлось пройти девочке. Через некоторое время ее снова забирают и отдают в богатый дом, где она должна быть компаньонкой больной девочки Клары, прикованной к инвалидной коляске.

Дополнительно :

По мере появления новых серий будет обновление

.

Качество : BDRip

Тип релиза : Без хардсаба

Формат видео : MP4

Наличие линковки : Нет

Релиз/Автор рипа : SilverzeroSubs

Видео : AVC, 1440x1080, 4:3, ~ 3000 Kbps, 23.976 fps, 8bit

Аудио : AAC, 44,1 KHz, 2(ch)stereo, 128kbps Язык Русский (в составе контейнера) ; Озвучка: двухголосая

Amazing Dubbing

Подробные тех. данные

`
Общее
Полное имя : B:театр мировых шедевров Аниме3.Хайдихайди1 серия - хайди девочка Альп.mp4
Формат : MPEG-4
Профиль формата : Base Media
Идентификатор кодека : isom (isom/iso2/avc1/mp41)
Размер файла : 460 Мбайт
Продолжительность : 25 м. 47 с.
Общий поток : 2 497 Кбит/сек
Программа кодирования : Lavf58.26.101

Видео
Идентификатор : 1
Формат : AVC
Формат/Информация : Advanced Video Codec
Профиль формата : [email protected]
Настройки формата : CABAC / 4 Ref Frames
Параметр CABAC формата : Да
Параметр RefFrames формата : 4 кадра
Идентификатор кодека : avc1
Идентификатор кодека/Информация : Advanced Video Coding
Продолжительность : 25 м. 47 с.
Битрейт : 2 361 Кбит/сек
Ширина : 1 440 пикселей
Высота : 1 080 пикселей
Соотношение сторон : 4:3
Режим частоты кадров : Постоянный
Частота кадров : 23,976 (24000/1001) кадра/сек
Цветовое пространство : YUV
Субдискретизация насыщенности : 4:2:0
Битовая глубина : 8 бит
Тип развёртки : Прогрессивная
Бит/(Пиксели*Кадры) : 0.063
Размер потока : 435 Мбайт (95%)
Библиотека кодирования : x264 core 157 r2969 d4099dd
Настройки программы : cabac=1 / ref=1 / deblock=1:1:1 / analyse=0x3:0x3 / me=dia / subme=1 / psy=1 / psyrd=0.40:0.00 / mixedref=0 / merange=16 / chromame=1 / trellis=0 / 8x8dct=1 / cqm=0 / deadzone=21,11 / fastpskip=1 / chromaqpoffset=0 / threads=6 / lookaheadthreads=1 / slicedthreads=0 / nr=0 / decimate=1 / interlaced=0 / bluraycompat=0 / constrainedintra=0 / bframes=5 / bpyramid=2 / badapt=1 / bbias=0 / direct=1 / weightb=1 / opengop=0 / weightp=1 / keyint=250 / keyintmin=23 / scenecut=40 / intrarefresh=0 / rc=crf / mbtree=0 / crf=23.0 / qcomp=0.60 / qpmin=0 / qpmax=69 / qpstep=4 / ipratio=1.40 / pb_ratio=1.30 / aq=1:0.60
Язык : Japanese
Codec configuration box : avcC

Аудио
Идентификатор : 2
Формат : AAC LC
Формат/Информация : Advanced Audio Codec Low Complexity
Идентификатор кодека : mp4a-40-2
Продолжительность : 25 м. 46 с.
Вид битрейта : Постоянный
Битрейт : 128 Кбит/сек
Каналы : 2 канала
Channel layout : L R
Частота : 44,1 КГц
Частота кадров : 43,066 кадра/сек (1024 SPF)
Метод сжатия : С потерями
Размер потока : 23,7 Мбайт (5%)
Язык : Russian
Default : Да
Alternate group : 1

`

Список эпизодов

  1. На Альпийские горы
    1. Дедушкина хижина на горе
    2. Горное пастбище
    3. Новый член семьи
    4. Сожжённое письмо
    5. Свист в горах
    6. Еловый шум
    7. Куда ты, Пичи?
    8. Серебряные Альпы
    9. Бабушкин дом
    10. Метель
    11. Звуки весны
    12. Назад на пастбище
    13. Плохие новости
    14. Юки
    15. Деревня Дорфли
    16. Непрошеные гости
    17. Разделённые
    18. Франкфурт
    19. Новая жизнь
    20. Я хочу летать
    21. Далёкие Альпы
    22. Большой переполох
    23. Брошенный котёнок
    24. Белый хлеб
    25. Возвращение господина Зеземанна
    26. Бабушка Клары
    27. Поездка в лес
    28. Два сердца
    29. Поймать солнце
    30. До свидания, бабушка
    31. Страшная ночь
    32. Привидение
    33. Домой
    34. Звёздное небо Альп
    35. И снова пастбище
    36. Козлёнок
    37. Новый дом
    38. Не сдавайся, Питер!
    39. Я хочу в Альпы!
    40. Обещание доктора
    41. Снова с Кларой
    42. Желание Клары
    43. План
    44. Дети гор
    45. Счастье Клары
    46. Здравствуй, бабушка!
    47. Призрачная надежда
    48. Обещание
    49. Встать на ноги
    50. Клара ходит
    51. Пока мы не встретимся снова

Отличия

https://rutracker.org/forum/viewtopic.php?t=5822600 видео взято из этой раздачи

Скриншоты

image image image image image image image image image image


More at ibit.to
And ibit.uno
And ibit.am
And ibit.ws

Comments

Files

Stream

Downloading Seeding Heidi: Girl of the Alps from to 0 peers.
of
0 b/s / ↗0 b/s